<?xml version="1.0" standalone="no"?>
<!DOCTYPE svg PUBLIC "-//W3C//DTD SVG 1.1//EN" "http://www.w3.org/Graphics/SVG/1.1/DTD/svg11.dtd" >
<svg>
<metadata>
Created by FontForge 20090622 at Sat Oct  8 09:44:05 2016
 By deploy user
Digitized data copyright &#194;&#169; 2012-2014, The Mozilla Foundation and Telefonica S.A.
</metadata>
<defs>
<font id="FiraSans-Medium" horiz-adv-x="560" >
  <font-face 
    font-family="Fira Sans Medium"
    font-weight="500"
    font-stretch="normal"
    units-per-em="1000"
    panose-1="2 11 6 3 5 0 0 2 0 4"
    ascent="785"
    descent="-215"
    x-height="529"
    cap-height="691"
    bbox="-181 -500 1360 1050"
    underline-thickness="0"
    underline-position="0"
    unicode-range="U+000D-U+1F310"
  />
<missing-glyph horiz-adv-x="666" 
d="M123 -500v1550h420v-1550h-420zM178 -448h311v1446h-311v-1446zM409.5 419q25.5 -32 25.5 -83q0 -53 -22.5 -82t-72.5 -36v-45q0 -11 -7.5 -17.5t-17.5 -6.5t-17.5 6.5t-7.5 17.5v84q53 3 72 19.5t19 57.5q0 33 -13 51t-48 18q-29 0 -52 -11q-8 -3 -13 -3
q-11 0 -17.5 6.5t-6.5 16.5q0 19 29.5 29t63.5 10q60 0 85.5 -32zM340 110q10 -10 10 -25q0 -16 -10 -26.5t-25 -10.5t-25 10.5t-10 26.5q0 15 10 25t25 10t25 -10z" />
    <glyph glyph-name="fi" unicode="fi" horiz-adv-x="592" 
d="M458 717l-39 -85q-53 25 -111 25q-50 0 -69 -17.5t-19 -56.5v-54h295v-529h-128v437h-167v-437h-128v437h-82v92h82v56q0 77 50.5 123.5t153.5 46.5q84 0 162 -38z" />
    <glyph glyph-name="fl" unicode="fl" horiz-adv-x="617" 
d="M518 -15q-60 0 -92 34.5t-32 100.5v525q-46 14 -93 14q-45 0 -63 -17t-18 -56v-57h114l-15 -92h-99v-437h-128v437h-82v92h82v58q0 75 49.5 121.5t142.5 46.5q59 0 118 -19l120 13v-620q0 -22 7 -31.5t23 -9.5t29 5l28 -90q-43 -18 -91 -18z" />
    <glyph glyph-name=".notdef" horiz-adv-x="666" 
d="M123 -500v1550h420v-1550h-420zM178 -448h311v1446h-311v-1446zM409.5 419q25.5 -32 25.5 -83q0 -53 -22.5 -82t-72.5 -36v-45q0 -11 -7.5 -17.5t-17.5 -6.5t-17.5 6.5t-7.5 17.5v84q53 3 72 19.5t19 57.5q0 33 -13 51t-48 18q-29 0 -52 -11q-8 -3 -13 -3
q-11 0 -17.5 6.5t-6.5 16.5q0 19 29.5 29t63.5 10q60 0 85.5 -32zM340 110q10 -10 10 -25q0 -16 -10 -26.5t-25 -10.5t-25 10.5t-10 26.5q0 15 10 25t25 10t25 -10z" />
    <glyph glyph-name="null" horiz-adv-x="0" 
 />
    <glyph glyph-name="CR" unicode="&#xd;" horiz-adv-x="250" 
 />
    <glyph glyph-name="space" unicode=" " horiz-adv-x="250" 
 />
    <glyph glyph-name="A" unicode="A" horiz-adv-x="583" 
d="M175 160l-43 -160h-137l215 691h163l214 -691h-140l-43 160h-229zM289 590l-88 -330h177z" />
    <glyph glyph-name="Aacute" unicode="&#xc1;" horiz-adv-x="583" 
d="M175 160l-43 -160h-137l215 691h163l214 -691h-140l-43 160h-229zM289 590l-88 -330h177zM193 753l-33 66l211 117l51 -100z" />
    <glyph glyph-name="Abreve" unicode="&#x102;" horiz-adv-x="583" 
d="M175 160l-43 -160h-137l215 691h163l214 -691h-140l-43 160h-229zM289 590l-88 -330h177zM178 795q-44 41 -50 103l75 15q10 -31 32 -49t55 -18t56 18t32 49l76 -15q-6 -62 -50.5 -103t-113.5 -41q-68 0 -112 41z" />
    <glyph glyph-name="Acircumflex" unicode="&#xc2;" horiz-adv-x="583" 
d="M175 160l-43 -160h-137l215 691h163l214 -691h-140l-43 160h-229zM289 590l-88 -330h177zM162 757l-49 55l139 121h80l139 -121l-49 -55l-130 82z" />
    <glyph glyph-name="Adieresis" unicode="&#xc4;" horiz-adv-x="583" 
d="M175 160l-43 -160h-137l215 691h163l214 -691h-140l-43 160h-229zM289 590l-88 -330h177zM230 891q20 -20 20 -49t-20 -49t-50 -20q-29 0 -49.5 20t-20.5 49t20.5 49t49.5 20q30 0 50 -20zM452 891q20 -20 20 -49t-20 -49t-50 -20q-29 0 -49.5 20t-20.5 49t20.5 49
t49.5 20q30 0 50 -20z" />
    <glyph glyph-name="Agrave" unicode="&#xc0;" horiz-adv-x="583" 
d="M175 160l-43 -160h-137l215 691h163l214 -691h-140l-43 160h-229zM289 590l-88 -330h177zM381 753l-229 83l51 100l211 -117z" />
    <glyph glyph-name="Amacron" unicode="&#x100;" horiz-adv-x="583" 
d="M175 160l-43 -160h-137l215 691h163l214 -691h-140l-43 160h-229zM289 590l-88 -330h177zM146 874h291v-91h-291v91z" />
    <glyph glyph-name="Aogonek" unicode="&#x104;" horiz-adv-x="583" 
d="M428.5 -54q-25.5 -26 -25.5 -54q0 -46 54 -46q29 0 61 7l-10 -85q-32 -8 -66 -8q-62 0 -99.5 30.5t-37.5 79.5q0 51 34.5 88t101.5 64l-37 138h-229l-43 -160h-137l215 691h163l214 -691h-64q-69 -28 -94.5 -54zM289 590l-88 -330h177z" />
    <glyph glyph-name="Aring" unicode="&#xc5;" horiz-adv-x="583" 
d="M175 160l-43 -160h-137l215 691h163l214 -691h-140l-43 160h-229zM289 590l-88 -330h177zM383.5 944.5q35.5 -34.5 35.5 -84.5q0 -51 -35 -85.5t-92 -34.5t-92.5 34.5t-35.5 85.5q0 50 35.5 84.5t92.5 34.5q56 0 91.5 -34.5zM256 898.5q-13 -13.5 -13 -38.5t13 -39
t36 -14q22 0 35 14t13 39t-13 38.5t-35 13.5q-23 0 -36 -13.5z" />
    <glyph glyph-name="Atilde" unicode="&#xc3;" horiz-adv-x="583" 
d="M175 160l-43 -160h-137l215 691h163l214 -691h-140l-43 160h-229zM289 590l-88 -330h177zM312.5 778.5q-17.5 7.5 -36.5 20.5q-13 9 -22 13.5t-19 4.5q-17 0 -28.5 -10.5t-24.5 -34.5l-69 34q20 46 50.5 75t70.5 29q22 0 36.5 -6.5t36.5 -20.5q13 -10 22.5 -14.5
t19.5 -4.5q15 0 27 10t26 33l68 -33q-20 -48 -50 -75.5t-67 -27.5q-23 0 -40.5 7.5z" />
    <glyph glyph-name="AE" unicode="&#xc6;" horiz-adv-x="832" 
d="M790 0h-339l-33 160h-239l-57 -160h-140l273 691h496l-15 -98h-288l44 -194h250v-98h-227l45 -202h230v-99zM332 591l-118 -331h184z" />
    <glyph glyph-name="AEacute" unicode="&#x1fc;" horiz-adv-x="832" 
d="M790 0h-339l-33 160h-239l-57 -160h-140l273 691h496l-15 -98h-288l44 -194h250v-98h-227l45 -202h230v-99zM332 591l-118 -331h184zM381 753l-33 66l211 117l51 -100z" />
    <glyph glyph-name="B" unicode="B" horiz-adv-x="613" 
d="M534.5 315q43.5 -38 43.5 -116q0 -108 -76 -153.5t-213 -45.5h-208v691h181q286 0 286 -176q0 -61 -37 -99.5t-91 -49.5q71 -13 114.5 -51zM213 407h81q55 0 87 24.5t32 72.5q0 50 -33.5 70t-104.5 20h-62v-187zM401.5 121q38.5 22 38.5 83q0 59 -36.5 85t-99.5 26h-91
v-216h77q73 0 111.5 22z" />
    <glyph glyph-name="C" unicode="C" horiz-adv-x="568" 
d="M455.5 688q47.5 -18 91.5 -55l-68 -79q-59 50 -128 50q-77 0 -123 -62t-46 -195q0 -131 46 -193.5t125 -62.5q40 0 71 15t69 43l62 -80q-35 -36 -88.5 -60t-119.5 -24q-90 0 -159 42t-107 123.5t-38 196.5q0 113 39.5 194t107.5 123t153 42q65 0 112.5 -18z" />
    <glyph glyph-name="Cacute" unicode="&#x106;" horiz-adv-x="568" 
d="M455.5 688q47.5 -18 91.5 -55l-68 -79q-59 50 -128 50q-77 0 -123 -62t-46 -195q0 -131 46 -193.5t125 -62.5q40 0 71 15t69 43l62 -80q-35 -36 -88.5 -60t-119.5 -24q-90 0 -159 42t-107 123.5t-38 196.5q0 113 39.5 194t107.5 123t153 42q65 0 112.5 -18zM252 753
l-33 66l211 117l51 -100z" />
    <glyph glyph-name="Ccaron" unicode="&#x10c;" horiz-adv-x="568" 
d="M455.5 688q47.5 -18 91.5 -55l-68 -79q-59 50 -128 50q-77 0 -123 -62t-46 -195q0 -131 46 -193.5t125 -62.5q40 0 71 15t69 43l62 -80q-35 -36 -88.5 -60t-119.5 -24q-90 0 -159 42t-107 123.5t-38 196.5q0 113 39.5 194t107.5 123t153 42q65 0 112.5 -18zM391 752h-80
l-139 120l49 56l130 -83l130 83l49 -56z" />
    <glyph glyph-name="Ccedilla" unicode="&#xc7;" horiz-adv-x="568" 
d="M479.5 15.5q-44.5 -22.5 -99.5 -28.5v-39q50 -5 74.5 -30t24.5 -63q0 -50 -38 -79t-100 -29q-30 0 -57.5 8t-44.5 20l31 63q32 -17 63 -17q22 0 35.5 8.5t13.5 26.5q0 19 -22 28.5t-69 9.5l11 94q-119 15 -189 108t-70 251q0 113 39.5 194t107.5 123t153 42
q65 0 112.5 -18t91.5 -55l-68 -79q-59 50 -128 50q-77 0 -123 -62t-46 -195q0 -131 46 -193.5t125 -62.5q40 0 71 15t69 43l62 -80q-31 -31 -75.5 -53.5z" />
    <glyph glyph-name="Ccircumflex" unicode="&#x108;" horiz-adv-x="568" 
d="M455.5 688q47.5 -18 91.5 -55l-68 -79q-59 50 -128 50q-77 0 -123 -62t-46 -195q0 -131 46 -193.5t125 -62.5q40 0 71 15t69 43l62 -80q-35 -36 -88.5 -60t-119.5 -24q-90 0 -159 42t-107 123.5t-38 196.5q0 113 39.5 194t107.5 123t153 42q65 0 112.5 -18zM221 757
l-49 55l139 121h80l139 -121l-49 -55l-130 82z" />
    <glyph glyph-name="Cdotaccent" unicode="&#x10a;" horiz-adv-x="568" 
d="M455.5 688q47.5 -18 91.5 -55l-68 -79q-59 50 -128 50q-77 0 -123 -62t-46 -195q0 -131 46 -193.5t125 -62.5q40 0 71 15t69 43l62 -80q-35 -36 -88.5 -60t-119.5 -24q-90 0 -159 42t-107 123.5t-38 196.5q0 113 39.5 194t107.5 123t153 42q65 0 112.5 -18zM408.5 900.5
q22.5 -22.5 22.5 -55.5t-22.5 -55t-58.5 -22q-35 0 -57.5 22t-22.5 55t22.5 55.5t57.5 22.5q36 0 58.5 -22.5z" />
    <glyph glyph-name="D" unicode="D" horiz-adv-x="648" 
d="M508.5 618q96.5 -73 96.5 -269q0 -192 -95 -270.5t-241 -78.5h-188v691h170q161 0 257.5 -73zM213 99h65q88 0 138 54.5t50 195.5q0 98 -25.5 151.5t-67 72.5t-99.5 19h-61v-493z" />
    <glyph glyph-name="Eth" unicode="&#xd0;" horiz-adv-x="661" 
d="M521.5 618q96.5 -73 96.5 -269q0 -192 -95 -270.5t-240 -78.5h-189v310h-77v86h77v295h171q160 0 256.5 -73zM429.5 153.5q50.5 54.5 50.5 195.5q0 98 -25.5 151.5t-67.5 72.5t-100 19h-60v-196h144v-86h-144v-211h64q88 0 138.5 54.5z" />
    <glyph glyph-name="Dcaron" unicode="&#x10e;" horiz-adv-x="648" 
d="M508.5 618q96.5 -73 96.5 -269q0 -192 -95 -270.5t-241 -78.5h-188v691h170q161 0 257.5 -73zM213 99h65q88 0 138 54.5t50 195.5q0 98 -25.5 151.5t-67 72.5t-99.5 19h-61v-493zM339 752h-80l-139 120l49 56l130 -83l130 83l49 -56z" />
    <glyph glyph-name="Dcroat" unicode="&#x110;" horiz-adv-x="661" 
d="M521.5 618q96.5 -73 96.5 -269q0 -192 -95 -270.5t-240 -78.5h-189v310h-77v86h77v295h171q160 0 256.5 -73zM429.5 153.5q50.5 54.5 50.5 195.5q0 98 -25.5 151.5t-67.5 72.5t-100 19h-60v-196h144v-86h-144v-211h64q88 0 138.5 54.5z" />
    <glyph glyph-name="E" unicode="E" horiz-adv-x="530" 
d="M213 593v-193h222v-98h-222v-203h273v-99h-405v691h401l-14 -98h-255z" />
    <glyph glyph-name="Eacute" unicode="&#xc9;" horiz-adv-x="530" 
d="M213 593v-193h222v-98h-222v-203h273v-99h-405v691h401l-14 -98h-255zM185 753l-33 66l211 117l51 -100z" />
    <glyph glyph-name="Ebreve" unicode="&#x114;" horiz-adv-x="530" 
d="M213 593v-193h222v-98h-222v-203h273v-99h-405v691h401l-14 -98h-255zM170 795q-44 41 -50 103l75 15q10 -31 32 -49t55 -18t56 18t32 49l76 -15q-6 -62 -50.5 -103t-113.5 -41q-68 0 -112 41z" />
    <glyph glyph-name="Ecaron" unicode="&#x11a;" horiz-adv-x="530" 
d="M213 593v-193h222v-98h-222v-203h273v-99h-405v691h401l-14 -98h-255zM324 752h-80l-139 120l49 56l130 -83l130 83l49 -56z" />
    <glyph glyph-name="Ecircumflex" unicode="&#xca;" horiz-adv-x="530" 
d="M213 593v-193h222v-98h-222v-203h273v-99h-405v691h401l-14 -98h-255zM154 757l-49 55l139 121h80l139 -121l-49 -55l-130 82z" />
    <glyph glyph-name="Edieresis" unicode="&#xcb;" horiz-adv-x="530" 
d="M213 593v-193h222v-98h-222v-203h273v-99h-405v691h401l-14 -98h-255zM222 891q20 -20 20 -49t-20 -49t-50 -20q-29 0 -49.5 20t-20.5 49t20.5 49t49.5 20q30 0 50 -20zM444 891q20 -20 20 -49t-20 -49t-50 -20q-29 0 -49.5 20t-20.5 49t20.5 49t49.5 20q30 0 50 -20z
" />
    <glyph glyph-name="Edotaccent" unicode="&#x116;" horiz-adv-x="530" 
d="M213 593v-193h222v-98h-222v-203h273v-99h-405v691h401l-14 -98h-255zM341.5 900.5q22.5 -22.5 22.5 -55.5t-22.5 -55t-58.5 -22q-35 0 -57.5 22t-22.5 55t22.5 55.5t57.5 22.5q36 0 58.5 -22.5z" />
    <glyph glyph-name="Egrave" unicode="&#xc8;" horiz-adv-x="530" 
d="M213 593v-193h222v-98h-222v-203h273v-99h-405v691h401l-14 -98h-255zM373 753l-229 83l51 100l211 -117z" />
    <glyph glyph-name="Emacron" unicode="&#x112;" horiz-adv-x="530" 
d="M213 593v-193h222v-98h-222v-203h273v-99h-405v691h401l-14 -98h-255zM138 874h291v-91h-291v91z" />
    <glyph glyph-name="Eogonek" unicode="&#x118;" horiz-adv-x="530" 
d="M446 0q-69 -28 -95 -54t-26 -54q0 -46 55 -46q27 0 61 7l-10 -85q-34 -8 -67 -8q-61 0 -99 30.5t-38 79.5q0 81 91 130h-237v691h401l-14 -98h-255v-193h222v-98h-222v-203h273v-99h-40z" />
    <glyph glyph-name="F" unicode="F" horiz-adv-x="489" 
d="M213 593v-207h213v-98h-213v-288h-132v691h391l-14 -98h-245z" />
    <glyph glyph-name="G" unicode="G" horiz-adv-x="638" 
d="M481 685.5q53 -20.5 99 -60.5l-72 -75q-36 30 -68.5 43t-75.5 13q-80 0 -131 -64t-51 -196q0 -138 40.5 -199t123.5 -61q63 0 110 27v180h-104l-14 98h248v-338q-108 -68 -243 -68q-145 0 -222.5 92t-77.5 269q0 113 42.5 194.5t114 123.5t158.5 42q70 0 123 -20.5z" />
    <glyph glyph-name="Gbreve" unicode="&#x11e;" horiz-adv-x="638" 
d="M481 685.5q53 -20.5 99 -60.5l-72 -75q-36 30 -68.5 43t-75.5 13q-80 0 -131 -64t-51 -196q0 -138 40.5 -199t123.5 -61q63 0 110 27v180h-104l-14 98h248v-338q-108 -68 -243 -68q-145 0 -222.5 92t-77.5 269q0 113 42.5 194.5t114 123.5t158.5 42q70 0 123 -20.5z
M240 795q-44 41 -50 103l75 15q10 -31 32 -49t55 -18t56 18t32 49l76 -15q-6 -62 -50.5 -103t-113.5 -41q-68 0 -112 41z" />
    <glyph glyph-name="Gcircumflex" unicode="&#x11c;" horiz-adv-x="638" 
d="M481 685.5q53 -20.5 99 -60.5l-72 -75q-36 30 -68.5 43t-75.5 13q-80 0 -131 -64t-51 -196q0 -138 40.5 -199t123.5 -61q63 0 110 27v180h-104l-14 98h248v-338q-108 -68 -243 -68q-145 0 -222.5 92t-77.5 269q0 113 42.5 194.5t114 123.5t158.5 42q70 0 123 -20.5z
M223 757l-49 55l139 121h80l139 -121l-49 -55l-130 82z" />
    <glyph glyph-name="Gcommaaccent" unicode="&#x122;" horiz-adv-x="638" 
d="M481 685.5q53 -20.5 99 -60.5l-72 -75q-36 30 -68.5 43t-75.5 13q-80 0 -131 -64t-51 -196q0 -138 40.5 -199t123.5 -61q63 0 110 27v180h-104l-14 98h248v-338q-108 -68 -243 -68q-145 0 -222.5 92t-77.5 269q0 113 42.5 194.5t114 123.5t158.5 42q70 0 123 -20.5z
M396 -91.5q20 -19.5 20 -48.5q0 -16 -5.5 -32.5t-21.5 -48.5l-44 -91h-67l28 116q-29 22 -29 56q0 28 20.5 48t49.5 20t49 -19.5z" />
    <glyph glyph-name="Gdotaccent" unicode="&#x120;" horiz-adv-x="638" 
d="M481 685.5q53 -20.5 99 -60.5l-72 -75q-36 30 -68.5 43t-75.5 13q-80 0 -131 -64t-51 -196q0 -138 40.5 -199t123.5 -61q63 0 110 27v180h-104l-14 98h248v-338q-108 -68 -243 -68q-145 0 -222.5 92t-77.5 269q0 113 42.5 194.5t114 123.5t158.5 42q70 0 123 -20.5z
M410.5 900.5q22.5 -22.5 22.5 -55.5t-22.5 -55t-58.5 -22q-35 0 -57.5 22t-22.5 55t22.5 55.5t57.5 22.5q36 0 58.5 -22.5z" />
    <glyph glyph-name="H" unicode="H" horiz-adv-x="672" 
d="M213 309v-309h-132v691h132v-277h246v277h133v-691h-133v309h-246z" />
    <glyph glyph-name="Hbar" unicode="&#x126;" horiz-adv-x="682" 
d="M597 504v-504h-133v308h-245v-308h-133v504h-63v81h63v107h133v-107h245v107h133v-107h62v-81h-62zM219 504v-90h245v90h-245z" />
    <glyph glyph-name="Hcircumflex" unicode="&#x124;" horiz-adv-x="672" 
d="M213 309v-309h-132v691h132v-277h246v277h133v-691h-133v309h-246zM206 757l-49 55l139 121h80l139 -121l-49 -55l-130 82z" />
    <glyph glyph-name="I" unicode="I" horiz-adv-x="295" 
d="M81 0v691h133v-691h-133z" />
    <glyph glyph-name="IJ" unicode="&#x132;" horiz-adv-x="606" 
d="M81 0v691h133v-691h-133zM476.5 -66.5q-52.5 -56.5 -150.5 -88.5l-35 95q44 17 66.5 38.5t30.5 51t8 76.5v585h133v-590q0 -111 -52.5 -167.5z" />
    <glyph glyph-name="Iacute" unicode="&#xcd;" horiz-adv-x="295" 
d="M81 0v691h133v-691h-133zM49 753l-33 66l211 117l51 -100z" />
    <glyph glyph-name="Ibreve" unicode="&#x12c;" horiz-adv-x="295" 
d="M81 0v691h133v-691h-133zM34 795q-44 41 -50 103l75 15q10 -31 32 -49t55 -18t56 18t32 49l76 -15q-6 -62 -50.5 -103t-113.5 -41q-68 0 -112 41z" />
    <glyph glyph-name="Icircumflex" unicode="&#xce;" horiz-adv-x="295" 
d="M81 0v691h133v-691h-133zM18 757l-49 55l139 121h80l139 -121l-49 -55l-130 82z" />
    <glyph glyph-name="Idieresis" unicode="&#xcf;" horiz-adv-x="295" 
d="M81 0v691h133v-691h-133zM86 891q20 -20 20 -49t-20 -49t-50 -20q-29 0 -49.5 20t-20.5 49t20.5 49t49.5 20q30 0 50 -20zM308 891q20 -20 20 -49t-20 -49t-50 -20q-29 0 -49.5 20t-20.5 49t20.5 49t49.5 20q30 0 50 -20z" />
    <glyph glyph-name="Idotaccent" unicode="&#x130;" horiz-adv-x="295" 
d="M81 0v691h133v-691h-133zM204.5 900.5q22.5 -22.5 22.5 -55.5t-22.5 -55t-58.5 -22q-35 0 -57.5 22t-22.5 55t22.5 55.5t57.5 22.5q36 0 58.5 -22.5z" />
    <glyph glyph-name="Igrave" unicode="&#xcc;" horiz-adv-x="295" 
d="M81 0v691h133v-691h-133zM237 753l-229 83l51 100l211 -117z" />
    <glyph glyph-name="Imacron" unicode="&#x12a;" horiz-adv-x="295" 
d="M81 0v691h133v-691h-133zM2 874h291v-91h-291v91z" />
    <glyph glyph-name="Iogonek" unicode="&#x12e;" horiz-adv-x="295" 
d="M214 0h-15q-69 -28 -95 -54t-26 -54q0 -46 55 -46q27 0 61 7l-10 -85q-34 -8 -67 -8q-61 0 -99 30.5t-38 79.5q0 43 25.5 76.5t75.5 59.5v685h133v-691z" />
    <glyph glyph-name="Itilde" unicode="&#x128;" horiz-adv-x="295" 
d="M81 0v691h133v-691h-133zM168.5 778.5q-17.5 7.5 -36.5 20.5q-13 9 -22 13.5t-19 4.5q-17 0 -28.5 -10.5t-24.5 -34.5l-69 34q20 46 50.5 75t70.5 29q22 0 36.5 -6.5t36.5 -20.5q13 -10 22.5 -14.5t19.5 -4.5q15 0 27 10t26 33l68 -33q-20 -48 -50 -75.5t-67 -27.5
q-23 0 -40.5 7.5z" />
    <glyph glyph-name="J" unicode="J" horiz-adv-x="312" 
d="M182.5 -66.5q-52.5 -56.5 -150.5 -88.5l-35 95q44 17 66.5 38.5t30.5 51t8 76.5v585h133v-590q0 -111 -52.5 -167.5z" />
    <glyph glyph-name="Jcircumflex" unicode="&#x134;" horiz-adv-x="312" 
d="M182.5 -66.5q-52.5 -56.5 -150.5 -88.5l-35 95q44 17 66.5 38.5t30.5 51t8 76.5v585h133v-590q0 -111 -52.5 -167.5zM39 757l-49 55l139 121h80l139 -121l-49 -55l-130 82z" />
    <glyph glyph-name="K" unicode="K" horiz-adv-x="613" 
d="M81 0v691h132v-691h-132zM620 0h-157l-244 369l239 322h143l-239 -313z" />
    <glyph glyph-name="Kcommaaccent" unicode="&#x136;" horiz-adv-x="613" 
d="M81 0v691h132v-691h-132zM620 0h-157l-244 369l239 322h143l-239 -313zM371 -91.5q20 -19.5 20 -48.5q0 -16 -5.5 -32.5t-21.5 -48.5l-44 -91h-67l28 116q-29 22 -29 56q0 28 20.5 48t49.5 20t49 -19.5z" />
    <glyph glyph-name="L" unicode="L" horiz-adv-x="506" 
d="M490 108l-15 -108h-394v691h132v-583h277z" />
    <glyph glyph-name="Lacute" unicode="&#x139;" horiz-adv-x="506" 
d="M490 108l-15 -108h-394v691h132v-583h277zM49 753l-33 66l211 117l51 -100z" />
    <glyph glyph-name="Lcaron" unicode="&#x13d;" horiz-adv-x="506" 
d="M490 108l-15 -108h-394v691h132v-583h277zM344 490l-69 8l13 205l102 -12z" />
    <glyph glyph-name="Lcommaaccent" unicode="&#x13b;" horiz-adv-x="506" 
d="M490 108l-15 -108h-394v691h132v-583h277zM329 -91.5q20 -19.5 20 -48.5q0 -16 -5.5 -32.5t-21.5 -48.5l-44 -91h-67l28 116q-29 22 -29 56q0 28 20.5 48t49.5 20t49 -19.5z" />
    <glyph glyph-name="Ldot" unicode="&#x13f;" horiz-adv-x="506" 
d="M490 108l-15 -108h-394v691h132v-583h277zM452.5 448.5q22.5 -22.5 22.5 -55.5t-22.5 -55t-58.5 -22q-35 0 -57.5 22t-22.5 55t22.5 55.5t57.5 22.5q36 0 58.5 -22.5z" />
    <glyph glyph-name="Lslash" unicode="&#x141;" horiz-adv-x="535" 
d="M504 0h-395v239l-48 -30l-46 75l94 58v349h133v-267l143 89l46 -75l-189 -117v-212l277 -1z" />
    <glyph glyph-name="M" unicode="M" horiz-adv-x="794" 
d="M607 0l-18 289q-9 151 -9 239v43l-126 -496h-125l-134 497q3 -48 3 -97q0 -76 -7 -190l-17 -285h-128l55 691h170l123 -484l116 484h172l54 -691h-129z" />
    <glyph glyph-name="N" unicode="N" horiz-adv-x="672" 
d="M420 0l-237 559q9 -74 13.5 -134t4.5 -143v-282h-120v691h167l241 -560q-6 40 -12 105.5t-6 130.5v324h120v-691h-171z" />
    <glyph glyph-name="Nacute" unicode="&#x143;" horiz-adv-x="672" 
d="M420 0l-237 559q9 -74 13.5 -134t4.5 -143v-282h-120v691h167l241 -560q-6 40 -12 105.5t-6 130.5v324h120v-691h-171zM245 753l-33 66l211 117l51 -100z" />
    <glyph glyph-name="Ncaron" unicode="&#x147;" horiz-adv-x="672" 
d="M420 0l-237 559q9 -74 13.5 -134t4.5 -143v-282h-120v691h167l241 -560q-6 40 -12 105.5t-6 130.5v324h120v-691h-171zM384 752h-80l-139 120l49 56l130 -83l130 83l49 -56z" />
    <glyph glyph-name="Ncommaaccent" unicode="&#x145;" horiz-adv-x="672" 
d="M420 0l-237 559q9 -74 13.5 -134t4.5 -143v-282h-120v691h167l241 -560q-6 40 -12 105.5t-6 130.5v324h120v-691h-171zM388 -91.5q20 -19.5 20 -48.5q0 -16 -5.5 -32.5t-21.5 -48.5l-44 -91h-67l28 116q-29 22 -29 56q0 28 20.5 48t49.5 20t49 -19.5z" />
    <glyph glyph-name="Eng" unicode="&#x14a;" horiz-adv-x="672" 
d="M591 47q0 -78 -22.5 -127.5t-63 -79.5t-106.5 -57l-37 86q38 17 60 32t35.5 38.5t17.5 60.5h-56l-233 554h-4q19 -135 19 -272v-282h-120v691h169l236 -556h4q-6 31 -12.5 98.5t-6.5 133.5v324h120v-644z" />
    <glyph glyph-name="Ntilde" unicode="&#xd1;" horiz-adv-x="672" 
d="M420 0l-237 559q9 -74 13.5 -134t4.5 -143v-282h-120v691h167l241 -560q-6 40 -12 105.5t-6 130.5v324h120v-691h-171zM364.5 778.5q-17.5 7.5 -36.5 20.5q-13 9 -22 13.5t-19 4.5q-17 0 -28.5 -10.5t-24.5 -34.5l-69 34q20 46 50.5 75t70.5 29q22 0 36.5 -6.5
t36.5 -20.5q13 -10 22.5 -14.5t19.5 -4.5q15 0 27 10t26 33l68 -33q-20 -48 -50 -75.5t-67 -27.5q-23 0 -40.5 7.5z" />
    <glyph glyph-name="O" unicode="O" horiz-adv-x="691" 
d="M507 664q68 -42 104.5 -123t36.5 -195q0 -113 -37 -194t-105 -124t-160 -43q-93 0 -161 42t-105 123t-37 195q0 112 37 193.5t105.5 124.5t160.5 43q93 0 161 -42zM224 542.5q-42 -62.5 -42 -197.5q0 -259 164 -259q80 0 121.5 62t41.5 198q0 135 -41.5 197t-121.5 62
t-122 -62.5z" />
    <glyph glyph-name="Oacute" unicode="&#xd3;" horiz-adv-x="691" 
d="M507 664q68 -42 104.5 -123t36.5 -195q0 -113 -37 -194t-105 -124t-160 -43q-93 0 -161 42t-105 123t-37 195q0 112 37 193.5t105.5 124.5t160.5 43q93 0 161 -42zM224 542.5q-42 -62.5 -42 -197.5q0 -259 164 -259q80 0 121.5 62t41.5 198q0 135 -41.5 197t-121.5 62
t-122 -62.5zM250 753l-33 66l211 117l51 -100z" />
    <glyph glyph-name="Obreve" unicode="&#x14e;" horiz-adv-x="691" 
d="M507 664q68 -42 104.5 -123t36.5 -195q0 -113 -37 -194t-105 -124t-160 -43q-93 0 -161 42t-105 123t-37 195q0 112 37 193.5t105.5 124.5t160.5 43q93 0 161 -42zM224 542.5q-42 -62.5 -42 -197.5q0 -259 164 -259q80 0 121.5 62t41.5 198q0 135 -41.5 197t-121.5 62
t-122 -62.5zM235 795q-44 41 -50 103l75 15q10 -31 32 -49t55 -18t56 18t32 49l76 -15q-6 -62 -50.5 -103t-113.5 -41q-68 0 -112 41z" />
    <glyph glyph-name="Ocircumflex" unicode="&#xd4;" horiz-adv-x="691" 
d="M507 664q68 -42 104.5 -123t36.5 -195q0 -113 -37 -194t-105 -124t-160 -43q-93 0 -161 42t-105 123t-37 195q0 112 37 193.5t105.5 124.5t160.5 43q93 0 161 -42zM224 542.5q-42 -62.5 -42 -197.5q0 -259 164 -259q80 0 121.5 62t41.5 198q0 135 -41.5 197t-121.5 62
t-122 -62.5zM218 757l-49 55l139 121h80l139 -121l-49 -55l-130 82z" />
    <glyph glyph-name="Odieresis" unicode="&#xd6;" horiz-adv-x="691" 
d="M507 664q68 -42 104.5 -123t36.5 -195q0 -113 -37 -194t-105 -124t-160 -43q-93 0 -161 42t-105 123t-37 195q0 112 37 193.5t105.5 124.5t160.5 43q93 0 161 -42zM224 542.5q-42 -62.5 -42 -197.5q0 -259 164 -259q80 0 121.5 62t41.5 198q0 135 -41.5 197t-121.5 62
t-122 -62.5zM287 891q20 -20 20 -49t-20 -49t-50 -20q-29 0 -49.5 20t-20.5 49t20.5 49t49.5 20q30 0 50 -20zM509 891q20 -20 20 -49t-20 -49t-50 -20q-29 0 -49.5 20t-20.5 49t20.5 49t49.5 20q30 0 50 -20z" />
    <glyph glyph-name="Ograve" unicode="&#xd2;" horiz-adv-x="691" 
d="M507 664q68 -42 104.5 -123t36.5 -195q0 -113 -37 -194t-105 -124t-160 -43q-93 0 -161 42t-105 123t-37 195q0 112 37 193.5t105.5 124.5t160.5 43q93 0 161 -42zM224 542.5q-42 -62.5 -42 -197.5q0 -259 164 -259q80 0 121.5 62t41.5 198q0 135 -41.5 197t-121.5 62
t-122 -62.5zM438 753l-229 83l51 100l211 -117z" />
    <glyph glyph-name="Ohungarumlaut" unicode="&#x150;" horiz-adv-x="691" 
d="M507 664q68 -42 104.5 -123t36.5 -195q0 -113 -37 -194t-105 -124t-160 -43q-93 0 -161 42t-105 123t-37 195q0 112 37 193.5t105.5 124.5t160.5 43q93 0 161 -42zM224 542.5q-42 -62.5 -42 -197.5q0 -259 164 -259q80 0 121.5 62t41.5 198q0 135 -41.5 197t-121.5 62
t-122 -62.5zM296 760l-72 30l83 184l94 -47zM451 755l-71 33l92 186l93 -48z" />
    <glyph glyph-name="Omacron" unicode="&#x14c;" horiz-adv-x="691" 
d="M507 664q68 -42 104.5 -123t36.5 -195q0 -113 -37 -194t-105 -124t-160 -43q-93 0 -161 42t-105 123t-37 195q0 112 37 193.5t105.5 124.5t160.5 43q93 0 161 -42zM224 542.5q-42 -62.5 -42 -197.5q0 -259 164 -259q80 0 121.5 62t41.5 198q0 135 -41.5 197t-121.5 62
t-122 -62.5zM202 874h291v-91h-291v91z" />
    <glyph glyph-name="Oslash" unicode="&#xd8;" horiz-adv-x="691" 
d="M610 544q38 -82 38 -198q0 -113 -37 -194t-105 -124t-160 -43q-26 0 -58 5l-36 -121l-103 27l40 129q-70 41 -108 123t-38 197q0 112 37 193.5t105.5 124.5t160.5 43q32 0 56 -4l37 122l104 -28l-42 -129q71 -41 109 -123zM224 542.5q-42 -62.5 -42 -197.5
q0 -164 58 -222l145 479q-19 3 -39 3q-80 0 -122 -62.5zM467.5 148q41.5 62 41.5 198q0 87 -15 141t-44 83l-144 -480q17 -4 40 -4q80 0 121.5 62z" />
    <glyph glyph-name="Oslashacute" unicode="&#x1fe;" horiz-adv-x="691" 
d="M610 544q38 -82 38 -198q0 -113 -37 -194t-105 -124t-160 -43q-26 0 -58 5l-36 -121l-103 27l40 129q-70 41 -108 123t-38 197q0 112 37 193.5t105.5 124.5t160.5 43q32 0 56 -4l37 122l104 -28l-42 -129q71 -41 109 -123zM224 542.5q-42 -62.5 -42 -197.5
q0 -164 58 -222l145 479q-19 3 -39 3q-80 0 -122 -62.5zM467.5 148q41.5 62 41.5 198q0 87 -15 141t-44 83l-144 -480q17 -4 40 -4q80 0 121.5 62zM244 778l-33 66l211 117l51 -100z" />
    <glyph glyph-name="Otilde" unicode="&#xd5;" horiz-adv-x="691" 
d="M507 664q68 -42 104.5 -123t36.5 -195q0 -113 -37 -194t-105 -124t-160 -43q-93 0 -161 42t-105 123t-37 195q0 112 37 193.5t105.5 124.5t160.5 43q93 0 161 -42zM224 542.5q-42 -62.5 -42 -197.5q0 -259 164 -259q80 0 121.5 62t41.5 198q0 135 -41.5 197t-121.5 62
t-122 -62.5zM369.5 778.5q-17.5 7.5 -36.5 20.5q-13 9 -22 13.5t-19 4.5q-17 0 -28.5 -10.5t-24.5 -34.5l-69 34q20 46 50.5 75t70.5 29q22 0 36.5 -6.5t36.5 -20.5q13 -10 22.5 -14.5t19.5 -4.5q15 0 27 10t26 33l68 -33q-20 -48 -50 -75.5t-67 -27.5q-23 0 -40.5 7.5z" />
    <glyph glyph-name="OE" unicode="&#x152;" horiz-adv-x="909" 
d="M416 0q-39 -15 -85 -15q-85 0 -150.5 42t-101.5 123.5t-36 194.5q0 112 36.5 193.5t101.5 124.5t150 43q49 0 89 -15h434l-15 -98h-287q62 -75 74 -193h181v-98h-181q-5 -60 -25 -112t-54 -91h310v-99h-441zM223 148.5q41 -62.5 113 -62.5q153 0 153 260q0 259 -153 259
q-73 0 -113.5 -63t-40.5 -197t41 -196.5z" />
    <glyph glyph-name="P" unicode="P" horiz-adv-x="591" 
d="M491.5 636q73.5 -55 73.5 -165q0 -115 -74 -172.5t-197 -57.5h-81v-241h-132v691h204q133 0 206.5 -55zM391 369.5q36 29.5 36 101.5q0 123 -143 123h-71v-254h71q71 0 107 29.5z" />
    <glyph glyph-name="Thorn" unicode="&#xde;" horiz-adv-x="591" 
d="M492 522.5q73 -55.5 73 -167.5q0 -118 -74 -176.5t-197 -58.5h-81v-120h-132v691h132v-113h72q134 0 207 -55.5zM391 249.5q36 30.5 36 105.5q0 66 -36.5 96t-106.5 30h-71v-262h71q71 0 107 30.5z" />
    <glyph glyph-name="Q" unicode="Q" horiz-adv-x="689" 
d="M595 26q47 -16 89 -46l-82 -107q-58 59 -115.5 87t-147.5 28q-89 0 -156 41.5t-103.5 121.5t-36.5 194q0 112 37 193.5t105.5 124.5t160.5 43q93 0 161 -42t104.5 -123t36.5 -195q0 -119 -42.5 -191.5t-118.5 -112.5q61 0 108 -16zM346 86q80 0 121.5 62t41.5 198
q0 135 -41.5 197t-121.5 62t-122 -62.5t-42 -197.5q0 -259 164 -259z" />
    <glyph glyph-name="R" unicode="R" horiz-adv-x="611" 
d="M213 277v-277h-132v691h206q274 0 274 -203q0 -70 -34 -114.5t-106 -72.5l181 -301h-152l-153 277h-84zM295 372q63 0 95.5 27.5t32.5 88.5q0 56 -33.5 81.5t-105.5 25.5h-71v-223h82z" />
    <glyph glyph-name="Racute" unicode="&#x154;" horiz-adv-x="611" 
d="M213 277v-277h-132v691h206q274 0 274 -203q0 -70 -34 -114.5t-106 -72.5l181 -301h-152l-153 277h-84zM295 372q63 0 95.5 27.5t32.5 88.5q0 56 -33.5 81.5t-105.5 25.5h-71v-223h82zM205 753l-33 66l211 117l51 -100z" />
    <glyph glyph-name="Rcaron" unicode="&#x158;" horiz-adv-x="611" 
d="M213 277v-277h-132v691h206q274 0 274 -203q0 -70 -34 -114.5t-106 -72.5l181 -301h-152l-153 277h-84zM295 372q63 0 95.5 27.5t32.5 88.5q0 56 -33.5 81.5t-105.5 25.5h-71v-223h82zM343 752h-80l-139 120l49 56l130 -83l130 83l49 -56z" />
    <glyph glyph-name="Rcommaaccent" unicode="&#x156;" horiz-adv-x="611" 
d="M213 277v-277h-132v691h206q274 0 274 -203q0 -70 -34 -114.5t-106 -72.5l181 -301h-152l-153 277h-84zM295 372q63 0 95.5 27.5t32.5 88.5q0 56 -33.5 81.5t-105.5 25.5h-71v-223h82zM361 -91.5q20 -19.5 20 -48.5q0 -16 -5.5 -32.5t-21.5 -48.5l-44 -91h-67l28 116
q-29 22 -29 56q0 28 20.5 48t49.5 20t49 -19.5z" />
    <glyph glyph-name="S" unicode="S" 
d="M407 685q54 -21 101 -64l-67 -76q-36 31 -73 45.5t-80 14.5q-48 0 -77.5 -21.5t-29.5 -60.5q0 -26 11.5 -43t41.5 -32t89 -33q102 -32 153.5 -79.5t51.5 -138.5q0 -62 -31.5 -110t-90.5 -75t-140 -27q-79 0 -141.5 25.5t-107.5 69.5l70 78q76 -71 176 -71q57 0 92 27
t35 76q0 30 -12 49.5t-41 35t-84 32.5q-110 34 -159 82t-49 126q0 57 30 100t83.5 67t121.5 24q73 0 127 -21z" />
    <glyph glyph-name="Sacute" unicode="&#x15a;" 
d="M407 685q54 -21 101 -64l-67 -76q-36 31 -73 45.5t-80 14.5q-48 0 -77.5 -21.5t-29.5 -60.5q0 -26 11.5 -43t41.5 -32t89 -33q102 -32 153.5 -79.5t51.5 -138.5q0 -62 -31.5 -110t-90.5 -75t-140 -27q-79 0 -141.5 25.5t-107.5 69.5l70 78q76 -71 176 -71q57 0 92 27
t35 76q0 30 -12 49.5t-41 35t-84 32.5q-110 34 -159 82t-49 126q0 57 30 100t83.5 67t121.5 24q73 0 127 -21zM188 753l-33 66l211 117l51 -100z" />
    <glyph glyph-name="Scaron" unicode="&#x160;" 
d="M407 685q54 -21 101 -64l-67 -76q-36 31 -73 45.5t-80 14.5q-48 0 -77.5 -21.5t-29.5 -60.5q0 -26 11.5 -43t41.5 -32t89 -33q102 -32 153.5 -79.5t51.5 -138.5q0 -62 -31.5 -110t-90.5 -75t-140 -27q-79 0 -141.5 25.5t-107.5 69.5l70 78q76 -71 176 -71q57 0 92 27
t35 76q0 30 -12 49.5t-41 35t-84 32.5q-110 34 -159 82t-49 126q0 57 30 100t83.5 67t121.5 24q73 0 127 -21zM326 752h-80l-139 120l49 56l130 -83l130 83l49 -56z" />
    <glyph glyph-name="Scedilla" unicode="&#x15e;" 
d="M471 55.5q-57 -56.5 -159 -67.5v-40q50 -5 74.5 -30t24.5 -63q0 -50 -38 -79t-100 -29q-30 0 -57.5 8t-44.5 20l31 63q32 -17 63 -17q22 0 35.5 8.5t13.5 26.5q0 19 -22 28.5t-69 9.5l11 92q-131 10 -217 94l70 78q76 -71 176 -71q57 0 92 27t35 76q0 30 -12 49.5t-41 35
t-84 32.5q-110 34 -159 82t-49 126q0 57 30 100t83.5 67t121.5 24q73 0 127 -21t101 -64l-67 -76q-36 31 -73 45.5t-80 14.5q-48 0 -77.5 -21.5t-29.5 -60.5q0 -26 11.5 -43t41.5 -32t89 -33q102 -32 153.5 -79.5t51.5 -138.5q0 -85 -57 -141.5z" />
    <glyph glyph-name="Scircumflex" unicode="&#x15c;" 
d="M407 685q54 -21 101 -64l-67 -76q-36 31 -73 45.5t-80 14.5q-48 0 -77.5 -21.5t-29.5 -60.5q0 -26 11.5 -43t41.5 -32t89 -33q102 -32 153.5 -79.5t51.5 -138.5q0 -62 -31.5 -110t-90.5 -75t-140 -27q-79 0 -141.5 25.5t-107.5 69.5l70 78q76 -71 176 -71q57 0 92 27
t35 76q0 30 -12 49.5t-41 35t-84 32.5q-110 34 -159 82t-49 126q0 57 30 100t83.5 67t121.5 24q73 0 127 -21zM156 757l-49 55l139 121h80l139 -121l-49 -55l-130 82z" />
    <glyph glyph-name="Scommaaccent" unicode="&#x218;" 
d="M407 685q54 -21 101 -64l-67 -76q-36 31 -73 45.5t-80 14.5q-48 0 -77.5 -21.5t-29.5 -60.5q0 -26 11.5 -43t41.5 -32t89 -33q102 -32 153.5 -79.5t51.5 -138.5q0 -62 -31.5 -110t-90.5 -75t-140 -27q-79 0 -141.5 25.5t-107.5 69.5l70 78q76 -71 176 -71q57 0 92 27
t35 76q0 30 -12 49.5t-41 35t-84 32.5q-110 34 -159 82t-49 126q0 57 30 100t83.5 67t121.5 24q73 0 127 -21zM327 -91.5q20 -19.5 20 -48.5q0 -16 -5.5 -32.5t-21.5 -48.5l-44 -91h-67l28 116q-29 22 -29 56q0 28 20.5 48t49.5 20t49 -19.5z" />
    <glyph glyph-name="T" unicode="T" horiz-adv-x="530" 
d="M331 586v-586h-133v586h-186v105h513l-14 -105h-180z" />
    <glyph glyph-name="Tbar" unicode="&#x166;" horiz-adv-x="531" 
d="M331 388h120v-82h-120v-308h-132v308h-119v82h119v197h-187v105h513l-14 -105h-180v-197z" />
    <glyph glyph-name="Tcaron" unicode="&#x164;" horiz-adv-x="530" 
d="M331 586v-586h-133v586h-186v105h513l-14 -105h-180zM305 752h-80l-139 120l49 56l130 -83l130 83l49 -56z" />
    <glyph glyph-name="Tcedilla" unicode="&#x162;" horiz-adv-x="530" 
d="M331 16v-68q50 -5 75.5 -30t25.5 -63q0 -50 -39 -79t-101 -29q-30 0 -56.5 7.5t-43.5 20.5l31 63q32 -17 60 -17q24 0 38 8.5t14 26.5q0 19 -22 28.5t-69 9.5l13 106h-59v586h-186v105h513l-14 -105h-180v-570z" />
    <glyph glyph-name="uni021A" unicode="&#x21a;" horiz-adv-x="530" 
d="M331 586v-586h-133v586h-186v105h513l-14 -105h-180zM316 -91.5q20 -19.5 20 -48.5q0 -16 -5.5 -32.5t-21.5 -48.5l-44 -91h-67l28 116q-29 22 -29 56q0 28 20.5 48t49.5 20t49 -19.5z" />
    <glyph glyph-name="U" unicode="U" horiz-adv-x="656" 
d="M555.5 101.5q-29.5 -54.5 -88 -85.5t-140.5 -31q-124 0 -190 65.5t-66 175.5v465h132v-458q0 -73 30.5 -109t93.5 -36q64 0 94.5 36t30.5 109v458h133v-465q0 -70 -29.5 -124.5z" />
    <glyph glyph-name="Uacute" unicode="&#xda;" horiz-adv-x="656" 
d="M555.5 101.5q-29.5 -54.5 -88 -85.5t-140.5 -31q-124 0 -190 65.5t-66 175.5v465h132v-458q0 -73 30.5 -109t93.5 -36q64 0 94.5 36t30.5 109v458h133v-465q0 -70 -29.5 -124.5zM229 753l-33 66l211 117l51 -100z" />
    <glyph glyph-name="Ubreve" unicode="&#x16c;" horiz-adv-x="656" 
d="M555.5 101.5q-29.5 -54.5 -88 -85.5t-140.5 -31q-124 0 -190 65.5t-66 175.5v465h132v-458q0 -73 30.5 -109t93.5 -36q64 0 94.5 36t30.5 109v458h133v-465q0 -70 -29.5 -124.5zM214 795q-44 41 -50 103l75 15q10 -31 32 -49t55 -18t56 18t32 49l76 -15
q-6 -62 -50.5 -103t-113.5 -41q-68 0 -112 41z" />
    <glyph glyph-name="Ucircumflex" unicode="&#xdb;" horiz-adv-x="656" 
d="M555.5 101.5q-29.5 -54.5 -88 -85.5t-140.5 -31q-124 0 -190 65.5t-66 175.5v465h132v-458q0 -73 30.5 -109t93.5 -36q64 0 94.5 36t30.5 109v458h133v-465q0 -70 -29.5 -124.5zM198 757l-49 55l139 121h80l139 -121l-49 -55l-130 82z" />
    <glyph glyph-name="Udieresis" unicode="&#xdc;" horiz-adv-x="656" 
d="M555.5 101.5q-29.5 -54.5 -88 -85.5t-140.5 -31q-124 0 -190 65.5t-66 175.5v465h132v-458q0 -73 30.5 -109t93.5 -36q64 0 94.5 36t30.5 109v458h133v-465q0 -70 -29.5 -124.5zM266 891q20 -20 20 -49t-20 -49t-50 -20q-29 0 -49.5 20t-20.5 49t20.5 49t49.5 20
q30 0 50 -20zM488 891q20 -20 20 -49t-20 -49t-50 -20q-29 0 -49.5 20t-20.5 49t20.5 49t49.5 20q30 0 50 -20z" />
    <glyph glyph-name="Ugrave" unicode="&#xd9;" horiz-adv-x="656" 
d="M555.5 101.5q-29.5 -54.5 -88 -85.5t-140.5 -31q-124 0 -190 65.5t-66 175.5v465h132v-458q0 -73 30.5 -109t93.5 -36q64 0 94.5 36t30.5 109v458h133v-465q0 -70 -29.5 -124.5zM418 753l-229 83l51 100l211 -117z" />
    <glyph glyph-name="Uhungarumlaut" unicode="&#x170;" horiz-adv-x="656" 
d="M555.5 101.5q-29.5 -54.5 -88 -85.5t-140.5 -31q-124 0 -190 65.5t-66 175.5v465h132v-458q0 -73 30.5 -109t93.5 -36q64 0 94.5 36t30.5 109v458h133v-465q0 -70 -29.5 -124.5zM276 760l-72 30l83 184l94 -47zM431 755l-71 33l92 186l93 -48z" />
    <glyph glyph-name="Umacron" unicode="&#x16a;" horiz-adv-x="656" 
d="M555.5 101.5q-29.5 -54.5 -88 -85.5t-140.5 -31q-124 0 -190 65.5t-66 175.5v465h132v-458q0 -73 30.5 -109t93.5 -36q64 0 94.5 36t30.5 109v458h133v-465q0 -70 -29.5 -124.5zM182 874h291v-91h-291v91z" />
    <glyph glyph-name="Uogonek" unicode="&#x172;" horiz-adv-x="656" 
d="M545 84q-40 -60 -116 -84q-69 -28 -94.5 -53.5t-25.5 -53.5q0 -47 54 -47q29 0 61 7l-10 -85q-35 -7 -66 -7q-61 0 -99 30t-38 79q0 38 23 67.5t66 48.5q-111 7 -170 72t-59 168v465h132v-458q0 -73 30.5 -109t93.5 -36q64 0 94.5 36t30.5 109v458h133v-465
q0 -82 -40 -142z" />
    <glyph glyph-name="Uring" unicode="&#x16e;" horiz-adv-x="656" 
d="M555.5 101.5q-29.5 -54.5 -88 -85.5t-140.5 -31q-124 0 -190 65.5t-66 175.5v465h132v-458q0 -73 30.5 -109t93.5 -36q64 0 94.5 36t30.5 109v458h133v-465q0 -70 -29.5 -124.5zM419.5 944.5q35.5 -34.5 35.5 -84.5q0 -51 -35 -85.5t-92 -34.5t-92.5 34.5t-35.5 85.5
q0 50 35.5 84.5t92.5 34.5q56 0 91.5 -34.5zM292 898.5q-13 -13.5 -13 -38.5t13 -39t36 -14q22 0 35 14t13 39t-13 38.5t-35 13.5q-23 0 -36 -13.5z" />
    <glyph glyph-name="Utilde" unicode="&#x168;" horiz-adv-x="656" 
d="M555.5 101.5q-29.5 -54.5 -88 -85.5t-140.5 -31q-124 0 -190 65.5t-66 175.5v465h132v-458q0 -73 30.5 -109t93.5 -36q64 0 94.5 36t30.5 109v458h133v-465q0 -70 -29.5 -124.5zM348.5 778.5q-17.5 7.5 -36.5 20.5q-13 9 -22 13.5t-19 4.5q-17 0 -28.5 -10.5t-24.5 -34.5
l-69 34q20 46 50.5 75t70.5 29q22 0 36.5 -6.5t36.5 -20.5q13 -10 22.5 -14.5t19.5 -4.5q15 0 27 10t26 33l68 -33q-20 -48 -50 -75.5t-67 -27.5q-23 0 -40.5 7.5z" />
    <glyph glyph-name="V" unicode="V" horiz-adv-x="564" 
d="M206 0l-211 691h142l150 -574l146 574h135l-205 -691h-157z" />
    <glyph glyph-name="W" unicode="W" horiz-adv-x="837" 
d="M522 0l-105 551l-108 -551h-167l-125 691h131l88 -586l113 586h140l111 -586l96 586h125l-127 -691h-172z" />
    <glyph glyph-name="Wacute" unicode="&#x1e82;" horiz-adv-x="837" 
d="M522 0l-105 551l-108 -551h-167l-125 691h131l88 -586l113 586h140l111 -586l96 586h125l-127 -691h-172zM321 753l-33 66l211 117l51 -100z" />
    <glyph glyph-name="Wcircumflex" unicode="&#x174;" horiz-adv-x="837" 
d="M522 0l-105 551l-108 -551h-167l-125 691h131l88 -586l113 586h140l111 -586l96 586h125l-127 -691h-172zM289 757l-49 55l139 121h80l139 -121l-49 -55l-130 82z" />
    <glyph glyph-name="Wdieresis" unicode="&#x1e84;" horiz-adv-x="837" 
d="M522 0l-105 551l-108 -551h-167l-125 691h131l88 -586l113 586h140l111 -586l96 586h125l-127 -691h-172zM358 891q20 -20 20 -49t-20 -49t-50 -20q-29 0 -49.5 20t-20.5 49t20.5 49t49.5 20q30 0 50 -20zM580 891q20 -20 20 -49t-20 -49t-50 -20q-29 0 -49.5 20
t-20.5 49t20.5 49t49.5 20q30 0 50 -20z" />
    <glyph glyph-name="Wgrave" unicode="&#x1e80;" horiz-adv-x="837" 
d="M522 0l-105 551l-108 -551h-167l-125 691h131l88 -586l113 586h140l111 -586l96 586h125l-127 -691h-172zM509 753l-229 83l51 100l211 -117z" />
    <glyph glyph-name="X" unicode="X" horiz-adv-x="562" 
d="M416 0l-138 283l-137 -283h-141l200 368l-184 323h147l117 -239l122 239h141l-185 -318l205 -373h-147z" />
    <glyph glyph-name="Y" unicode="Y" horiz-adv-x="574" 
d="M354 0h-134v261l-222 430h146l146 -321l146 321h140l-222 -429v-262z" />
    <glyph glyph-name="Yacute" unicode="&#xdd;" horiz-adv-x="574" 
d="M354 0h-134v261l-222 430h146l146 -321l146 321h140l-222 -429v-262zM190 753l-33 66l211 117l51 -100z" />
    <glyph glyph-name="Ycircumflex" unicode="&#x176;" horiz-adv-x="574" 
d="M354 0h-134v261l-222 430h146l146 -321l146 321h140l-222 -429v-262zM159 757l-49 55l139 121h80l139 -121l-49 -55l-130 82z" />
    <glyph glyph-name="Ydieresis" unicode="&#x178;" horiz-adv-x="574" 
d="M354 0h-134v261l-222 430h146l146 -321l146 321h140l-222 -429v-262zM227 891q20 -20 20 -49t-20 -49t-50 -20q-29 0 -49.5 20t-20.5 49t20.5 49t49.5 20q30 0 50 -20zM449 891q20 -20 20 -49t-20 -49t-50 -20q-29 0 -49.5 20t-20.5 49t20.5 49t49.5 20q30 0 50 -20z" />
    <glyph glyph-name="Ygrave" unicode="&#x1ef2;" horiz-adv-x="574" 
d="M354 0h-134v261l-222 430h146l146 -321l146 321h140l-222 -429v-262zM378 753l-229 83l51 100l211 -117z" />
    <glyph glyph-name="Z" unicode="Z" horiz-adv-x="534" 
d="M177 108h322l-14 -108h-462v101l325 485h-292v105h440v-102z" />
    <glyph glyph-name="Zacute" unicode="&#x179;" horiz-adv-x="534" 
d="M177 108h322l-14 -108h-462v101l325 485h-292v105h440v-102zM176 753l-33 66l211 117l51 -100z" />
    <glyph glyph-name="Zcaron" unicode="&#x17d;" horiz-adv-x="534" 
d="M177 108h322l-14 -108h-462v101l325 485h-292v105h440v-102zM314 752h-80l-139 120l49 56l130 -83l130 83l49 -56z" />
    <glyph glyph-name="Zdotaccent" unicode="&#x17b;" horiz-adv-x="534" 
d="M177 108h322l-14 -108h-462v101l325 485h-292v105h440v-102zM332.5 900.5q22.5 -22.5 22.5 -55.5t-22.5 -55t-58.5 -22q-35 0 -57.5 22t-22.5 55t22.5 55.5t57.5 22.5q36 0 58.5 -22.5z" />
    <glyph glyph-name="Oslashacute.001" horiz-adv-x="691" 
d="M610 544q38 -82 38 -198q0 -113 -37 -194t-105 -124t-160 -43q-26 0 -58 5l-36 -121l-103 27l40 129q-70 41 -108 123t-38 197q0 112 37 193.5t105.5 124.5t160.5 43q32 0 56 -4l37 122l104 -28l-42 -129q71 -41 109 -123zM224 542.5q-42 -62.5 -42 -197.5
q0 -164 58 -222l145 479q-19 3 -39 3q-80 0 -122 -62.5zM467.5 148q41.5 62 41.5 198q0 87 -15 141t-44 83l-144 -480q17 -4 40 -4q80 0 121.5 62zM244 778l-33 66l211 117l51 -100z" />
    <glyph glyph-name="Cacute.loclPLK" horiz-adv-x="568" 
d="M455.5 688q47.5 -18 91.5 -55l-68 -79q-59 50 -128 50q-77 0 -123 -62t-46 -195q0 -131 46 -193.5t125 -62.5q40 0 71 15t69 43l62 -80q-35 -36 -88.5 -60t-119.5 -24q-90 0 -159 42t-107 123.5t-38 196.5q0 113 39.5 194t107.5 123t153 42q65 0 112.5 -18zM346 738
l-59 35l100 174l97 -57z" />
    <glyph glyph-name="Nacute.loclPLK" horiz-adv-x="672" 
d="M420 0l-237 559q9 -74 13.5 -134t4.5 -143v-282h-120v691h167l241 -560q-6 40 -12 105.5t-6 130.5v324h120v-691h-171zM339 738l-59 35l100 174l97 -57z" />
    <glyph glyph-name="Oacute.loclPLK" horiz-adv-x="691" 
d="M507 664q68 -42 104.5 -123t36.5 -195q0 -113 -37 -194t-105 -124t-160 -43q-93 0 -161 42t-105 123t-37 195q0 112 37 193.5t105.5 124.5t160.5 43q93 0 161 -42zM224 542.5q-42 -62.5 -42 -197.5q0 -259 164 -259q80 0 121.5 62t41.5 198q0 135 -41.5 197t-121.5 62
t-122 -62.5zM344 738l-59 35l100 174l97 -57z" />
    <glyph glyph-name="Sacute.loclPLK" 
d="M407 685q54 -21 101 -64l-67 -76q-36 31 -73 45.5t-80 14.5q-48 0 -77.5 -21.5t-29.5 -60.5q0 -26 11.5 -43t41.5 -32t89 -33q102 -32 153.5 -79.5t51.5 -138.5q0 -62 -31.5 -110t-90.5 -75t-140 -27q-79 0 -141.5 25.5t-107.5 69.5l70 78q76 -71 176 -71q57 0 92 27
t35 76q0 30 -12 49.5t-41 35t-84 32.5q-110 34 -159 82t-49 126q0 57 30 100t83.5 67t121.5 24q73 0 127 -21zM282 738l-59 35l100 174l97 -57z" />
    <glyph glyph-name="Zacute.loclPLK" horiz-adv-x="534" 
d="M177 108h322l-14 -108h-462v101l325 485h-292v105h440v-102zM270 738l-59 35l100 174l97 -57z" />
    <glyph glyph-name="a" unicode="a" horiz-adv-x="546" 
d="M477.5 94.5q9.5 -14.5 30.5 -22.5l-27 -85q-45 4 -73.5 21.5t-43.5 55.5q-27 -40 -67.5 -59.5t-90.5 -19.5q-79 0 -125 45t-46 118q0 86 62.5 131.5t178.5 45.5h66v30q0 51 -23.5 71.5t-75.5 20.5q-58 0 -140 -28l-30 87q99 38 192 38q203 0 203 -182v-222
q0 -31 9.5 -45.5zM342 143v107h-53q-124 0 -124 -92q0 -38 19 -59t56 -21q65 0 102 65z" />
    <glyph glyph-name="aacute" unicode="&#xe1;" horiz-adv-x="546" 
d="M477.5 94.5q9.5 -14.5 30.5 -22.5l-27 -85q-45 4 -73.5 21.5t-43.5 55.5q-27 -40 -67.5 -59.5t-90.5 -19.5q-79 0 -125 45t-46 118q0 86 62.5 131.5t178.5 45.5h66v30q0 51 -23.5 71.5t-75.5 20.5q-58 0 -140 -28l-30 87q99 38 192 38q203 0 203 -182v-222
q0 -31 9.5 -45.5zM342 143v107h-53q-124 0 -124 -92q0 -38 19 -59t56 -21q65 0 102 65zM161 630l-36 65l210 125l52 -100z" />
    <glyph glyph-name="abreve" unicode="&#x103;" horiz-adv-x="546" 
d="M477.5 94.5q9.5 -14.5 30.5 -22.5l-27 -85q-45 4 -73.5 21.5t-43.5 55.5q-27 -40 -67.5 -59.5t-90.5 -19.5q-79 0 -125 45t-46 118q0 86 62.5 131.5t178.5 45.5h66v30q0 51 -23.5 71.5t-75.5 20.5q-58 0 -140 -28l-30 87q99 38 192 38q203 0 203 -182v-222
q0 -31 9.5 -45.5zM342 143v107h-53q-124 0 -124 -92q0 -38 19 -59t56 -21q65 0 102 65zM152.5 680q-43.5 43 -49.5 112l75 14q20 -77 87 -77q34 0 56.5 20t31.5 57l76 -14q-6 -69 -50.5 -112t-113.5 -43t-112.5 43z" />
    <glyph glyph-name="acircumflex" unicode="&#xe2;" horiz-adv-x="546" 
d="M477.5 94.5q9.5 -14.5 30.5 -22.5l-27 -85q-45 4 -73.5 21.5t-43.5 55.5q-27 -40 -67.5 -59.5t-90.5 -19.5q-79 0 -125 45t-46 118q0 86 62.5 131.5t178.5 45.5h66v30q0 51 -23.5 71.5t-75.5 20.5q-58 0 -140 -28l-30 87q99 38 192 38q203 0 203 -182v-222
q0 -31 9.5 -45.5zM342 143v107h-53q-124 0 -124 -92q0 -38 19 -59t56 -21q65 0 102 65zM225 808h81l139 -126l-49 -55l-130 88l-130 -88l-49 55z" />
    <glyph glyph-name="adieresis" unicode="&#xe4;" horiz-adv-x="546" 
d="M477.5 94.5q9.5 -14.5 30.5 -22.5l-27 -85q-45 4 -73.5 21.5t-43.5 55.5q-27 -40 -67.5 -59.5t-90.5 -19.5q-79 0 -125 45t-46 118q0 86 62.5 131.5t178.5 45.5h66v30q0 51 -23.5 71.5t-75.5 20.5q-58 0 -140 -28l-30 87q99 38 192 38q203 0 203 -182v-222
q0 -31 9.5 -45.5zM342 143v107h-53q-124 0 -124 -92q0 -38 19 -59t56 -21q65 0 102 65zM205 765q20 -20 20 -49t-20 -49t-50 -20q-29 0 -49.5 20t-20.5 49t20.5 49t49.5 20q30 0 50 -20zM427 765q20 -20 20 -49t-20 -49t-51 -20q-29 0 -49 20t-20 49t20 49t49 20
q31 0 51 -20z" />
    <glyph glyph-name="agrave" unicode="&#xe0;" horiz-adv-x="546" 
d="M477.5 94.5q9.5 -14.5 30.5 -22.5l-27 -85q-45 4 -73.5 21.5t-43.5 55.5q-27 -40 -67.5 -59.5t-90.5 -19.5q-79 0 -125 45t-46 118q0 86 62.5 131.5t178.5 45.5h66v30q0 51 -23.5 71.5t-75.5 20.5q-58 0 -140 -28l-30 87q99 38 192 38q203 0 203 -182v-222
q0 -31 9.5 -45.5zM342 143v107h-53q-124 0 -124 -92q0 -38 19 -59t56 -21q65 0 102 65zM370 630l-225 90l52 100l210 -125z" />
    <glyph glyph-name="amacron" unicode="&#x101;" horiz-adv-x="546" 
d="M477.5 94.5q9.5 -14.5 30.5 -22.5l-27 -85q-45 4 -73.5 21.5t-43.5 55.5q-27 -40 -67.5 -59.5t-90.5 -19.5q-79 0 -125 45t-46 118q0 86 62.5 131.5t178.5 45.5h66v30q0 51 -23.5 71.5t-75.5 20.5q-58 0 -140 -28l-30 87q99 38 192 38q203 0 203 -182v-222
q0 -31 9.5 -45.5zM342 143v107h-53q-124 0 -124 -92q0 -38 19 -59t56 -21q65 0 102 65zM120 752h291v-91h-291v91z" />
    <glyph glyph-name="aogonek" unicode="&#x105;" horiz-adv-x="546" 
d="M386.5 -67.5q-25.5 -25.5 -25.5 -53.5q0 -47 54 -47q29 0 61 7l-10 -85q-35 -7 -66 -7q-61 0 -99 30t-38 79q0 52 36 89.5t106 64.5q-26 19 -41 54q-27 -40 -67.5 -59.5t-90.5 -19.5q-79 0 -125 45t-46 118q0 86 62.5 131.5t178.5 45.5h66v30q0 51 -23.5 71.5t-75.5 20.5
q-58 0 -140 -28l-30 87q99 38 192 38q203 0 203 -182v-222q0 -31 9.5 -45.5t30.5 -22.5l-27 -86q-69 -28 -94.5 -53.5zM342 143v107h-53q-124 0 -124 -92q0 -38 19 -59t56 -21q65 0 102 65z" />
    <glyph glyph-name="aring" unicode="&#xe5;" horiz-adv-x="546" 
d="M477.5 94.5q9.5 -14.5 30.5 -22.5l-27 -85q-45 4 -73.5 21.5t-43.5 55.5q-27 -40 -67.5 -59.5t-90.5 -19.5q-79 0 -125 45t-46 118q0 86 62.5 131.5t178.5 45.5h66v30q0 51 -23.5 71.5t-75.5 20.5q-58 0 -140 -28l-30 87q99 38 192 38q203 0 203 -182v-222
q0 -31 9.5 -45.5zM342 143v107h-53q-124 0 -124 -92q0 -38 19 -59t56 -21q65 0 102 65zM359 818.5q35 -34.5 35 -85.5q0 -50 -35.5 -85t-91.5 -35q-57 0 -92.5 35t-35.5 85q0 51 35.5 85.5t92.5 34.5t92 -34.5zM231 772q-13 -14 -13 -39t13 -38.5t36 -13.5q22 0 35 13.5
t13 38.5t-13 39t-35 14q-23 0 -36 -14z" />
    <glyph glyph-name="atilde" unicode="&#xe3;" horiz-adv-x="546" 
d="M477.5 94.5q9.5 -14.5 30.5 -22.5l-27 -85q-45 4 -73.5 21.5t-43.5 55.5q-27 -40 -67.5 -59.5t-90.5 -19.5q-79 0 -125 45t-46 118q0 86 62.5 131.5t178.5 45.5h66v30q0 51 -23.5 71.5t-75.5 20.5q-58 0 -140 -28l-30 87q99 38 192 38q203 0 203 -182v-222
q0 -31 9.5 -45.5zM342 143v107h-53q-124 0 -124 -92q0 -38 19 -59t56 -21q65 0 102 65zM287.5 652.5q-16.5 7.5 -36.5 20.5q-25 18 -41 18q-17 0 -28.5 -10.5t-24.5 -34.5l-69 34q20 47 50.5 75.5t70.5 28.5q22 0 36.5 -6.5t36.5 -20.5q13 -10 22.5 -14.5t19.5 -4.5
q15 0 27 10t26 33l68 -34q-20 -48 -50.5 -75.5t-66.5 -27.5q-24 1 -40.5 8.5z" />
    <glyph glyph-name="ae" unicode="&#xe6;" horiz-adv-x="856" 
d="M811 225h-332q7 -77 40.5 -110t89.5 -33q35 0 66 11t66 36l54 -73q-90 -71 -197 -71q-67 0 -118 24.5t-83 69.5q-35 -50 -81.5 -72t-106.5 -22q-80 0 -127 45t-47 118q0 86 63.5 131.5t181.5 45.5h67v30q0 50 -23.5 70.5t-75.5 20.5q-57 0 -141 -28l-29 88q99 38 191 38
q113 0 160 -73q60 73 157 73q107 0 167.5 -71t60.5 -196q0 -31 -3 -52zM688 314q-2 139 -104 139q-47 0 -73 -34.5t-32 -110.5h209v6zM308.5 97q27.5 19 52.5 58q-11 40 -13 89v4h-53q-124 0 -124 -92q0 -38 19 -58t56 -20q35 0 62.5 19z" />
    <glyph glyph-name="aeacute" unicode="&#x1fd;" horiz-adv-x="856" 
d="M811 225h-332q7 -77 40.5 -110t89.5 -33q35 0 66 11t66 36l54 -73q-90 -71 -197 -71q-67 0 -118 24.5t-83 69.5q-35 -50 -81.5 -72t-106.5 -22q-80 0 -127 45t-47 118q0 86 63.5 131.5t181.5 45.5h67v30q0 50 -23.5 70.5t-75.5 20.5q-57 0 -141 -28l-29 88q99 38 191 38
q113 0 160 -73q60 73 157 73q107 0 167.5 -71t60.5 -196q0 -31 -3 -52zM688 314q-2 139 -104 139q-47 0 -73 -34.5t-32 -110.5h209v6zM308.5 97q27.5 19 52.5 58q-11 40 -13 89v4h-53q-124 0 -124 -92q0 -38 19 -58t56 -20q35 0 62.5 19zM320 630l-36 65l210 125l52 -100z
" />
    <glyph glyph-name="b" unicode="b" horiz-adv-x="596" 
d="M495 471q52 -73 52 -206q0 -82 -25.5 -145.5t-72.5 -99t-111 -35.5q-43 0 -78.5 18t-61.5 51l-8 -54h-113v741l128 14v-285q26 35 63 54.5t81 19.5q94 0 146 -73zM384 125.5q29 44.5 29 139.5q0 100 -27 141.5t-76 41.5q-61 0 -105 -72v-234q19 -29 44 -45t55 -16
q51 0 80 44.5z" />
    <glyph glyph-name="c" unicode="c" horiz-adv-x="478" 
d="M383.5 529q41.5 -15 78.5 -47l-58 -78q-26 20 -51 29.5t-55 9.5q-119 0 -119 -181q0 -92 31 -132.5t88 -40.5q29 0 52.5 9.5t52.5 31.5l59 -84q-75 -61 -171 -61q-76 0 -132 33.5t-86 95.5t-30 146t30 148.5t86 100t131 35.5q52 0 93.5 -15z" />
    <glyph glyph-name="cacute" unicode="&#x107;" horiz-adv-x="478" 
d="M383.5 529q41.5 -15 78.5 -47l-58 -78q-26 20 -51 29.5t-55 9.5q-119 0 -119 -181q0 -92 31 -132.5t88 -40.5q29 0 52.5 9.5t52.5 31.5l59 -84q-75 -61 -171 -61q-76 0 -132 33.5t-86 95.5t-30 146t30 148.5t86 100t131 35.5q52 0 93.5 -15zM185 630l-36 65l210 125
l52 -100z" />
    <glyph glyph-name="ccaron" unicode="&#x10d;" horiz-adv-x="478" 
d="M383.5 529q41.5 -15 78.5 -47l-58 -78q-26 20 -51 29.5t-55 9.5q-119 0 -119 -181q0 -92 31 -132.5t88 -40.5q29 0 52.5 9.5t52.5 31.5l59 -84q-75 -61 -171 -61q-76 0 -132 33.5t-86 95.5t-30 146t30 148.5t86 100t131 35.5q52 0 93.5 -15zM330 619h-80l-139 125l49 56
l130 -88l130 88l49 -56z" />
    <glyph glyph-name="ccedilla" unicode="&#xe7;" horiz-adv-x="478" 
d="M317 -14v-37q50 -5 74 -30t24 -63q0 -50 -38 -79t-99 -29q-31 0 -58 7.5t-45 19.5l31 64q31 -17 64 -17q48 0 48 35q0 19 -21.5 28t-69.5 9l12 96q-92 17 -144 88t-52 182q0 84 30 148.5t86 100t131 35.5q52 0 93.5 -15t78.5 -47l-58 -78q-26 20 -51 29.5t-55 9.5
q-119 0 -119 -181q0 -92 31 -132.5t88 -40.5q29 0 52.5 9.5t52.5 31.5l59 -84q-65 -53 -145 -60z" />
    <glyph glyph-name="ccircumflex" unicode="&#x109;" horiz-adv-x="478" 
d="M383.5 529q41.5 -15 78.5 -47l-58 -78q-26 20 -51 29.5t-55 9.5q-119 0 -119 -181q0 -92 31 -132.5t88 -40.5q29 0 52.5 9.5t52.5 31.5l59 -84q-75 -61 -171 -61q-76 0 -132 33.5t-86 95.5t-30 146t30 148.5t86 100t131 35.5q52 0 93.5 -15zM249 808h81l139 -126l-49 -55
l-130 88l-130 -88l-49 55z" />
    <glyph glyph-name="cdotaccent" unicode="&#x10b;" horiz-adv-x="478" 
d="M383.5 529q41.5 -15 78.5 -47l-58 -78q-26 20 -51 29.5t-55 9.5q-119 0 -119 -181q0 -92 31 -132.5t88 -40.5q29 0 52.5 9.5t52.5 31.5l59 -84q-75 -61 -171 -61q-76 0 -132 33.5t-86 95.5t-30 146t30 148.5t86 100t131 35.5q52 0 93.5 -15zM347.5 774.5
q22.5 -22.5 22.5 -55.5t-22.5 -55t-58.5 -22q-35 0 -57.5 22t-22.5 55t22.5 55.5t57.5 22.5q36 0 58.5 -22.5z" />
    <glyph glyph-name="d" unicode="d" horiz-adv-x="599" 
d="M522 0h-113l-9 67q-25 -38 -63 -60t-88 -22q-97 0 -149 75t-52 204q0 82 26 145.5t74.5 99t114.5 35.5q76 0 131 -57v268l128 -14v-741zM345 98.5q26 16.5 49 51.5v242q-22 28 -46 42t-54 14q-52 0 -81.5 -45.5t-29.5 -137.5q0 -98 26 -140.5t76 -42.5q34 0 60 16.5z" />
    <glyph glyph-name="eth" unicode="&#xf0;" horiz-adv-x="575" 
d="M486 502q40 -95 40 -231q0 -83 -29.5 -148t-85 -101.5t-130.5 -36.5q-67 0 -121 29.5t-85.5 86t-31.5 133.5q0 65 25 121t71.5 89t108.5 33q82 0 139 -55q-13 54 -39 95t-71 76l-62 -60l-83 40l64 65q-44 18 -101 28l26 88q81 -14 148 -42l71 76l69 -60l-59 -61
q96 -70 136 -165zM366 126.5q30 45.5 30 134.5q0 44 -1 66q-45 57 -117 57q-104 0 -104 -146q0 -78 28.5 -117.5t78.5 -39.5q55 0 85 45.5z" />
    <glyph glyph-name="dcaron" unicode="&#x10f;" horiz-adv-x="707" 
d="M522 0h-113l-9 67q-25 -38 -63 -60t-88 -22q-97 0 -149 75t-52 204q0 82 26 145.5t74.5 99t114.5 35.5q76 0 131 -57v268l128 -14v-741zM345 98.5q26 16.5 49 51.5v242q-22 28 -46 42t-54 14q-52 0 -81.5 -45.5t-29.5 -137.5q0 -98 26 -140.5t76 -42.5q34 0 60 16.5z
M648 539l-69 8l13 205l102 -12z" />
    <glyph glyph-name="dcroat" unicode="&#x111;" horiz-adv-x="605" 
d="M592 601h-70v-601h-113l-9 67q-25 -38 -63 -60t-88 -22q-97 0 -149 75t-52 204q0 82 26 145.5t74.5 99t114.5 35.5q76 0 131 -57v114h-140l-12 82h152v72l128 -14v-58h70v-82zM345 98.5q26 16.5 49 51.5v242q-22 28 -46 42t-54 14q-52 0 -81.5 -45.5t-29.5 -137.5
q0 -98 26 -140.5t76 -42.5q34 0 60 16.5z" />
    <glyph glyph-name="e" unicode="e" horiz-adv-x="552" 
d="M508 225h-332q7 -77 40.5 -110t89.5 -33q35 0 66 11.5t66 35.5l53 -73q-88 -71 -196 -71q-121 0 -186.5 74t-65.5 202q0 81 28 145.5t81 101t126 36.5q111 0 172 -70.5t61 -196.5q0 -10 -3 -52zM384 314q0 139 -103 139q-47 0 -73.5 -34.5t-31.5 -110.5h208v6z" />
    <glyph glyph-name="eacute" unicode="&#xe9;" horiz-adv-x="552" 
d="M508 225h-332q7 -77 40.5 -110t89.5 -33q35 0 66 11.5t66 35.5l53 -73q-88 -71 -196 -71q-121 0 -186.5 74t-65.5 202q0 81 28 145.5t81 101t126 36.5q111 0 172 -70.5t61 -196.5q0 -10 -3 -52zM384 314q0 139 -103 139q-47 0 -73.5 -34.5t-31.5 -110.5h208v6zM176 630
l-36 65l210 125l52 -100z" />
    <glyph glyph-name="ebreve" unicode="&#x115;" horiz-adv-x="552" 
d="M508 225h-332q7 -77 40.5 -110t89.5 -33q35 0 66 11.5t66 35.5l53 -73q-88 -71 -196 -71q-121 0 -186.5 74t-65.5 202q0 81 28 145.5t81 101t126 36.5q111 0 172 -70.5t61 -196.5q0 -10 -3 -52zM384 314q0 139 -103 139q-47 0 -73.5 -34.5t-31.5 -110.5h208v6zM167.5 680
q-43.5 43 -49.5 112l75 14q20 -77 87 -77q34 0 56.5 20t31.5 57l76 -14q-6 -69 -50.5 -112t-113.5 -43t-112.5 43z" />
    <glyph glyph-name="ecaron" unicode="&#x11b;" horiz-adv-x="552" 
d="M508 225h-332q7 -77 40.5 -110t89.5 -33q35 0 66 11.5t66 35.5l53 -73q-88 -71 -196 -71q-121 0 -186.5 74t-65.5 202q0 81 28 145.5t81 101t126 36.5q111 0 172 -70.5t61 -196.5q0 -10 -3 -52zM384 314q0 139 -103 139q-47 0 -73.5 -34.5t-31.5 -110.5h208v6zM321 619
h-80l-139 125l49 56l130 -88l130 88l49 -56z" />
    <glyph glyph-name="ecircumflex" unicode="&#xea;" horiz-adv-x="552" 
d="M508 225h-332q7 -77 40.5 -110t89.5 -33q35 0 66 11.5t66 35.5l53 -73q-88 -71 -196 -71q-121 0 -186.5 74t-65.5 202q0 81 28 145.5t81 101t126 36.5q111 0 172 -70.5t61 -196.5q0 -10 -3 -52zM384 314q0 139 -103 139q-47 0 -73.5 -34.5t-31.5 -110.5h208v6zM240 808
h81l139 -126l-49 -55l-130 88l-130 -88l-49 55z" />
    <glyph glyph-name="edieresis" unicode="&#xeb;" horiz-adv-x="552" 
d="M508 225h-332q7 -77 40.5 -110t89.5 -33q35 0 66 11.5t66 35.5l53 -73q-88 -71 -196 -71q-121 0 -186.5 74t-65.5 202q0 81 28 145.5t81 101t126 36.5q111 0 172 -70.5t61 -196.5q0 -10 -3 -52zM384 314q0 139 -103 139q-47 0 -73.5 -34.5t-31.5 -110.5h208v6zM219 765
q20 -20 20 -49t-20 -49t-50 -20q-29 0 -49.5 20t-20.5 49t20.5 49t49.5 20q30 0 50 -20zM441 765q20 -20 20 -49t-20 -49t-51 -20q-29 0 -49 20t-20 49t20 49t49 20q31 0 51 -20z" />
    <glyph glyph-name="edotaccent" unicode="&#x117;" horiz-adv-x="552" 
d="M508 225h-332q7 -77 40.5 -110t89.5 -33q35 0 66 11.5t66 35.5l53 -73q-88 -71 -196 -71q-121 0 -186.5 74t-65.5 202q0 81 28 145.5t81 101t126 36.5q111 0 172 -70.5t61 -196.5q0 -10 -3 -52zM384 314q0 139 -103 139q-47 0 -73.5 -34.5t-31.5 -110.5h208v6z
M338.5 774.5q22.5 -22.5 22.5 -55.5t-22.5 -55t-58.5 -22q-35 0 -57.5 22t-22.5 55t22.5 55.5t57.5 22.5q36 0 58.5 -22.5z" />
    <glyph glyph-name="egrave" unicode="&#xe8;" horiz-adv-x="552" 
d="M508 225h-332q7 -77 40.5 -110t89.5 -33q35 0 66 11.5t66 35.5l53 -73q-88 -71 -196 -71q-121 0 -186.5 74t-65.5 202q0 81 28 145.5t81 101t126 36.5q111 0 172 -70.5t61 -196.5q0 -10 -3 -52zM384 314q0 139 -103 139q-47 0 -73.5 -34.5t-31.5 -110.5h208v6zM385 630
l-225 90l52 100l210 -125z" />
    <glyph glyph-name="emacron" unicode="&#x113;" horiz-adv-x="552" 
d="M508 225h-332q7 -77 40.5 -110t89.5 -33q35 0 66 11.5t66 35.5l53 -73q-88 -71 -196 -71q-121 0 -186.5 74t-65.5 202q0 81 28 145.5t81 101t126 36.5q111 0 172 -70.5t61 -196.5q0 -10 -3 -52zM384 314q0 139 -103 139q-47 0 -73.5 -34.5t-31.5 -110.5h208v6zM135 752
h291v-91h-291v91z" />
    <glyph glyph-name="eogonek" unicode="&#x119;" horiz-adv-x="552" 
d="M508 225h-332q7 -77 40.5 -110t89.5 -33q35 0 66 11.5t66 35.5l53 -73q-45 -37 -100 -56q-59 -26 -81 -50t-22 -50q0 -47 54 -47q29 0 61 7l-10 -85q-35 -7 -66 -7q-61 0 -99 30t-38 79q0 69 75 110q-106 9 -164 82t-58 192q0 81 28 145.5t81 101t126 36.5
q111 0 172 -70.5t61 -196.5q0 -10 -3 -52zM384 314q0 139 -103 139q-47 0 -73.5 -34.5t-31.5 -110.5h208v6z" />
    <glyph glyph-name="f" unicode="f" horiz-adv-x="347" 
d="M236.5 640.5q-16.5 -17.5 -16.5 -55.5v-56h127l-14 -92h-113v-437h-128v437h-86v92h86v58q0 75 48.5 121.5t137.5 46.5q70 0 137 -31l-37 -86q-43 20 -87 20q-38 0 -54.5 -17.5z" />
    <glyph glyph-name="g" unicode="g" horiz-adv-x="537" 
d="M384 483q49 -22 72.5 -54.5t23.5 -81.5q0 -52 -25.5 -92t-74 -63t-113.5 -23q-36 0 -63 8q-22 -15 -22 -39q0 -37 64 -37h81q58 0 101.5 -19t67.5 -53.5t24 -77.5q0 -80 -68 -124.5t-196 -44.5q-92 0 -144.5 19t-74.5 55t-22 92h115q0 -28 10.5 -44t38 -24t79.5 -8
q73 0 103 18t30 52q0 30 -23 46.5t-67 16.5h-80q-75 0 -113 29t-38 73q0 28 16.5 54t45.5 44q-48 25 -70.5 61.5t-22.5 87.5q0 57 28 100t77.5 66.5t113.5 23.5q84 -2 135.5 12.5t111.5 46.5l32 -102q-51 -18 -153 -18zM192.5 429.5q-24.5 -27.5 -24.5 -73.5q0 -48 25 -76
t69 -28q46 0 70 27.5t24 77.5q0 100 -96 100q-43 0 -67.5 -27.5z" />
    <glyph glyph-name="gbreve" unicode="&#x11f;" horiz-adv-x="537" 
d="M384 483q49 -22 72.5 -54.5t23.5 -81.5q0 -52 -25.5 -92t-74 -63t-113.5 -23q-36 0 -63 8q-22 -15 -22 -39q0 -37 64 -37h81q58 0 101.5 -19t67.5 -53.5t24 -77.5q0 -80 -68 -124.5t-196 -44.5q-92 0 -144.5 19t-74.5 55t-22 92h115q0 -28 10.5 -44t38 -24t79.5 -8
q73 0 103 18t30 52q0 30 -23 46.5t-67 16.5h-80q-75 0 -113 29t-38 73q0 28 16.5 54t45.5 44q-48 25 -70.5 61.5t-22.5 87.5q0 57 28 100t77.5 66.5t113.5 23.5q84 -2 135.5 12.5t111.5 46.5l32 -102q-51 -18 -153 -18zM192.5 429.5q-24.5 -27.5 -24.5 -73.5q0 -48 25 -76
t69 -28q46 0 70 27.5t24 77.5q0 100 -96 100q-43 0 -67.5 -27.5zM152.5 680q-43.5 43 -49.5 112l75 14q20 -77 87 -77q34 0 56.5 20t31.5 57l76 -14q-6 -69 -50.5 -112t-113.5 -43t-112.5 43z" />
    <glyph glyph-name="gcircumflex" unicode="&#x11d;" horiz-adv-x="537" 
d="M384 483q49 -22 72.5 -54.5t23.5 -81.5q0 -52 -25.5 -92t-74 -63t-113.5 -23q-36 0 -63 8q-22 -15 -22 -39q0 -37 64 -37h81q58 0 101.5 -19t67.5 -53.5t24 -77.5q0 -80 -68 -124.5t-196 -44.5q-92 0 -144.5 19t-74.5 55t-22 92h115q0 -28 10.5 -44t38 -24t79.5 -8
q73 0 103 18t30 52q0 30 -23 46.5t-67 16.5h-80q-75 0 -113 29t-38 73q0 28 16.5 54t45.5 44q-48 25 -70.5 61.5t-22.5 87.5q0 57 28 100t77.5 66.5t113.5 23.5q84 -2 135.5 12.5t111.5 46.5l32 -102q-51 -18 -153 -18zM192.5 429.5q-24.5 -27.5 -24.5 -73.5q0 -48 25 -76
t69 -28q46 0 70 27.5t24 77.5q0 100 -96 100q-43 0 -67.5 -27.5zM226 808h81l139 -126l-49 -55l-130 88l-130 -88l-49 55z" />
    <glyph glyph-name="gcommaaccent" unicode="&#x123;" horiz-adv-x="537" 
d="M384 483q49 -22 72.5 -54.5t23.5 -81.5q0 -52 -25.5 -92t-74 -63t-113.5 -23q-36 0 -63 8q-22 -15 -22 -39q0 -37 64 -37h81q58 0 101.5 -19t67.5 -53.5t24 -77.5q0 -80 -68 -124.5t-196 -44.5q-92 0 -144.5 19t-74.5 55t-22 92h115q0 -28 10.5 -44t38 -24t79.5 -8
q73 0 103 18t30 52q0 30 -23 46.5t-67 16.5h-80q-75 0 -113 29t-38 73q0 28 16.5 54t45.5 44q-48 25 -70.5 61.5t-22.5 87.5q0 57 28 100t77.5 66.5t113.5 23.5q84 -2 135.5 12.5t111.5 46.5l32 -102q-51 -18 -153 -18zM192.5 429.5q-24.5 -27.5 -24.5 -73.5q0 -48 25 -76
t69 -28q46 0 70 27.5t24 77.5q0 100 -96 100q-43 0 -67.5 -27.5zM215 620.5q-20 19.5 -20 48.5q0 16 5.5 32.5t21.5 48.5l44 91h67l-28 -116q29 -22 29 -56q0 -28 -20.5 -48t-49.5 -20t-49 19.5z" />
    <glyph glyph-name="gdotaccent" unicode="&#x121;" horiz-adv-x="537" 
d="M384 483q49 -22 72.5 -54.5t23.5 -81.5q0 -52 -25.5 -92t-74 -63t-113.5 -23q-36 0 -63 8q-22 -15 -22 -39q0 -37 64 -37h81q58 0 101.5 -19t67.5 -53.5t24 -77.5q0 -80 -68 -124.5t-196 -44.5q-92 0 -144.5 19t-74.5 55t-22 92h115q0 -28 10.5 -44t38 -24t79.5 -8
q73 0 103 18t30 52q0 30 -23 46.5t-67 16.5h-80q-75 0 -113 29t-38 73q0 28 16.5 54t45.5 44q-48 25 -70.5 61.5t-22.5 87.5q0 57 28 100t77.5 66.5t113.5 23.5q84 -2 135.5 12.5t111.5 46.5l32 -102q-51 -18 -153 -18zM192.5 429.5q-24.5 -27.5 -24.5 -73.5q0 -48 25 -76
t69 -28q46 0 70 27.5t24 77.5q0 100 -96 100q-43 0 -67.5 -27.5zM324.5 774.5q22.5 -22.5 22.5 -55.5t-22.5 -55t-58.5 -22q-35 0 -57.5 22t-22.5 55t22.5 55.5t57.5 22.5q36 0 58.5 -22.5z" />
    <glyph glyph-name="h" unicode="h" horiz-adv-x="581" 
d="M469 501q40 -43 40 -118v-383h-128v363q0 47 -16.5 66t-48.5 19t-59 -20.5t-52 -58.5v-369h-128v740l128 13v-288q63 79 154 79q70 0 110 -43z" />
    <glyph glyph-name="hbar" unicode="&#x127;" horiz-adv-x="585" 
d="M473 501.5q40 -42.5 40 -117.5v-384h-128v363q0 47 -17 66t-49 19q-60 0 -110 -79v-369h-128v601h-68v82h68v57l128 14v-71h147l-12 -82h-135v-135q64 78 154 78q70 0 110 -42.5z" />
    <glyph glyph-name="hcircumflex" unicode="&#x125;" horiz-adv-x="581" 
d="M469 501q40 -43 40 -118v-383h-128v363q0 47 -16.5 66t-48.5 19t-59 -20.5t-52 -58.5v-369h-128v740l128 13v-288q63 79 154 79q70 0 110 -43zM160 806l-49 55l139 121h80l139 -121l-49 -55l-130 82z" />
    <glyph glyph-name="i" unicode="i" horiz-adv-x="282" 
d="M77 0v529h128v-529h-128zM198.5 774.5q22.5 -22.5 22.5 -55.5t-22.5 -55t-58.5 -22q-35 0 -57.5 22t-22.5 55t22.5 55.5t57.5 22.5q36 0 58.5 -22.5z" />
    <glyph glyph-name="dotlessi" unicode="&#x131;" horiz-adv-x="282" 
d="M77 0v529h128v-529h-128z" />
    <glyph glyph-name="iacute" unicode="&#xed;" horiz-adv-x="282" 
d="M77 0v529h128v-529h-128zM36 630l-36 65l210 125l52 -100z" />
    <glyph glyph-name="ibreve" unicode="&#x12d;" horiz-adv-x="282" 
d="M77 0v529h128v-529h-128zM27.5 680q-43.5 43 -49.5 112l75 14q20 -77 87 -77q34 0 56.5 20t31.5 57l76 -14q-6 -69 -50.5 -112t-113.5 -43t-112.5 43z" />
    <glyph glyph-name="icircumflex" unicode="&#xee;" horiz-adv-x="282" 
d="M77 0v529h128v-529h-128zM100 808h81l139 -126l-49 -55l-130 88l-130 -88l-49 55z" />
    <glyph glyph-name="idieresis" unicode="&#xef;" horiz-adv-x="282" 
d="M77 0v529h128v-529h-128zM80 765q20 -20 20 -49t-20 -49t-50 -20q-29 0 -49.5 20t-20.5 49t20.5 49t49.5 20q30 0 50 -20zM302 765q20 -20 20 -49t-20 -49t-51 -20q-29 0 -49 20t-20 49t20 49t49 20q31 0 51 -20z" />
    <glyph glyph-name="i.loclTRK" horiz-adv-x="282" 
d="M77 0v529h128v-529h-128zM198.5 774.5q22.5 -22.5 22.5 -55.5t-22.5 -55t-58.5 -22q-35 0 -57.5 22t-22.5 55t22.5 55.5t57.5 22.5q36 0 58.5 -22.5z" />
    <glyph glyph-name="igrave" unicode="&#xec;" horiz-adv-x="282" 
d="M77 0v529h128v-529h-128zM245 630l-225 90l52 100l210 -125z" />
    <glyph glyph-name="ij" unicode="&#x133;" horiz-adv-x="563" 
d="M199 775q22 -22 22 -56q0 -33 -22.5 -55t-57.5 -22t-57.5 22t-22.5 55t22.5 55.5t57.5 22.5q36 0 58 -22zM486 48q0 -78 -22.5 -128t-63.5 -80.5t-107 -56.5l-40 93q38 18 60 35.5t33.5 47.5t11.5 80v491h128v-482zM205 529v-529h-128v529h128z" />
    <glyph glyph-name="imacron" unicode="&#x12b;" horiz-adv-x="282" 
d="M77 0v529h128v-529h-128zM-5 752h291v-91h-291v91z" />
    <glyph glyph-name="iogonek" unicode="&#x12f;" horiz-adv-x="282" 
d="M83.5 664q-22.5 22 -22.5 55t22.5 55.5t57.5 22.5q36 0 58 -22t22 -56q0 -33 -22.5 -55t-57.5 -22t-57.5 22zM205 529v-529h-14q-69 -28 -94.5 -54t-25.5 -54q0 -46 54 -46q29 0 61 7l-10 -85q-32 -8 -66 -8q-62 0 -99.5 30.5t-37.5 79.5q0 86 104 137v522h128z" />
    <glyph glyph-name="itilde" unicode="&#x129;" horiz-adv-x="282" 
d="M77 0v529h128v-529h-128zM162.5 652.5q-16.5 7.5 -36.5 20.5q-25 18 -41 18q-17 0 -28.5 -10.5t-24.5 -34.5l-69 34q20 47 50.5 75.5t70.5 28.5q22 0 36.5 -6.5t36.5 -20.5q13 -10 22.5 -14.5t19.5 -4.5q15 0 27 10t26 33l68 -34q-20 -48 -50.5 -75.5t-66.5 -27.5
q-24 1 -40.5 8.5z" />
    <glyph glyph-name="j" unicode="j" horiz-adv-x="281" 
d="M181.5 -80.5q-22.5 -49.5 -63.5 -79.5t-107 -57l-41 93q39 18 61 35.5t33.5 47.5t11.5 80v490h128v-482q0 -78 -22.5 -127.5zM197.5 774.5q22.5 -22.5 22.5 -55.5t-22.5 -55t-58.5 -22q-35 0 -57.5 22t-22.5 55t22.5 55.5t57.5 22.5q36 0 58.5 -22.5z" />
    <glyph glyph-name="jdotless" unicode="&#x237;" horiz-adv-x="281" 
d="M181.5 -80.5q-22.5 -49.5 -63.5 -79.5t-107 -57l-41 93q39 18 61 35.5t33.5 47.5t11.5 80v490h128v-482q0 -78 -22.5 -127.5z" />
    <glyph glyph-name="jcircumflex" unicode="&#x135;" horiz-adv-x="281" 
d="M181.5 -80.5q-22.5 -49.5 -63.5 -79.5t-107 -57l-41 93q39 18 61 35.5t33.5 47.5t11.5 80v490h128v-482q0 -78 -22.5 -127.5zM100 808h81l139 -126l-49 -55l-130 88l-130 -88l-49 55z" />
    <glyph glyph-name="k" unicode="k" horiz-adv-x="534" 
d="M77 0v741l128 14v-755h-128zM539 0h-147l-182 289l177 240h135l-176 -233z" />
    <glyph glyph-name="kcommaaccent" unicode="&#x137;" horiz-adv-x="534" 
d="M77 0v741l128 14v-755h-128zM539 0h-147l-182 289l177 240h135l-176 -233zM317 -91.5q20 -19.5 20 -48.5q0 -16 -5.5 -32.5t-21.5 -48.5l-44 -91h-67l28 116q-29 22 -29 56q0 28 20.5 48t49.5 20t49 -19.5z" />
    <glyph glyph-name="kgreenlandic" unicode="&#x138;" horiz-adv-x="532" 
d="M77 0v529h128v-529h-128zM537 0h-147l-182 279l177 250h135l-176 -243z" />
    <glyph glyph-name="l" unicode="l" horiz-adv-x="295" 
d="M207 97.5q7 -9.5 23 -9.5q15 0 30 5l27 -90q-43 -18 -91 -18q-60 0 -92 34.5t-32 100.5v621l128 14v-626q0 -22 7 -31.5z" />
    <glyph glyph-name="lacute" unicode="&#x13a;" horiz-adv-x="295" 
d="M207 97.5q7 -9.5 23 -9.5q15 0 30 5l27 -90q-43 -18 -91 -18q-60 0 -92 34.5t-32 100.5v621l128 14v-626q0 -22 7 -31.5zM38 802l-33 66l211 117l51 -100z" />
    <glyph glyph-name="lcaron" unicode="&#x13e;" horiz-adv-x="358" 
d="M207 97.5q7 -9.5 23 -9.5q15 0 30 5l27 -90q-43 -18 -91 -18q-60 0 -92 34.5t-32 100.5v621l128 14v-626q0 -22 7 -31.5zM331 539l-69 8l13 205l102 -12z" />
    <glyph glyph-name="lcommaaccent" unicode="&#x13c;" horiz-adv-x="295" 
d="M207 97.5q7 -9.5 23 -9.5q15 0 30 5l27 -90q-43 -18 -91 -18q-60 0 -92 34.5t-32 100.5v621l128 14v-626q0 -22 7 -31.5zM211 -91.5q20 -19.5 20 -48.5q0 -16 -5.5 -32.5t-21.5 -48.5l-44 -91h-67l28 116q-29 22 -29 56q0 28 20.5 48t49.5 20t49 -19.5z" />
    <glyph glyph-name="ldot" unicode="&#x140;" horiz-adv-x="397" 
d="M207 97.5q7 -9.5 23 -9.5q15 0 30 5l27 -90q-43 -18 -91 -18q-60 0 -92 34.5t-32 100.5v621l128 14v-626q0 -22 7 -31.5zM387.5 431.5q22.5 -22.5 22.5 -55.5t-22.5 -55t-58.5 -22q-35 0 -57.5 22t-22.5 55t22.5 55.5t57.5 22.5q36 0 58.5 -22.5z" />
    <glyph glyph-name="lslash" unicode="&#x142;" horiz-adv-x="325" 
d="M277 93l28 -90q-43 -18 -91 -18q-60 0 -92.5 34.5t-32.5 100.5v168l-48 -29l-36 83l84 51v348l128 14v-283l66 40l35 -84l-101 -61v-237q0 -42 30 -42q15 0 30 5z" />
    <glyph glyph-name="m" unicode="m" horiz-adv-x="850" 
d="M740 500.5q38 -43.5 38 -117.5v-383h-128v363q0 85 -58 85q-31 0 -53.5 -19.5t-46.5 -60.5v-368h-128v363q0 85 -58 85q-32 0 -54.5 -19.5t-46.5 -60.5v-368h-128v529h111l10 -69q60 84 153 84q46 0 79.5 -23t49.5 -66q31 44 69 66.5t89 22.5q64 0 102 -43.5z" />
    <glyph glyph-name="n" unicode="n" horiz-adv-x="581" 
d="M469.5 501.5q39.5 -42.5 39.5 -118.5v-383h-128v363q0 47 -16.5 66t-48.5 19q-33 0 -59.5 -20.5t-51.5 -59.5v-368h-128v529h111l10 -70q66 85 161 85q71 0 110.5 -42.5z" />
    <glyph glyph-name="nacute" unicode="&#x144;" horiz-adv-x="581" 
d="M469.5 501.5q39.5 -42.5 39.5 -118.5v-383h-128v363q0 47 -16.5 66t-48.5 19q-33 0 -59.5 -20.5t-51.5 -59.5v-368h-128v529h111l10 -70q66 85 161 85q71 0 110.5 -42.5zM191 630l-36 65l210 125l52 -100z" />
    <glyph glyph-name="napostrophe" unicode="&#x149;" horiz-adv-x="678" 
d="M565.5 501.5q39.5 -42.5 39.5 -118.5v-383h-128v363q0 47 -16.5 66t-48.5 19q-33 0 -59.5 -20.5t-51.5 -59.5v-368h-128v529h111l10 -70q66 85 161 85q71 0 110.5 -42.5zM190.5 736.5q18.5 -17.5 18.5 -44.5q0 -15 -5 -30.5t-20 -45.5l-41 -84h-62l26 108q-27 22 -27 52
q0 26 19 44t46 18t45.5 -17.5z" />
    <glyph glyph-name="ncaron" unicode="&#x148;" horiz-adv-x="581" 
d="M469.5 501.5q39.5 -42.5 39.5 -118.5v-383h-128v363q0 47 -16.5 66t-48.5 19q-33 0 -59.5 -20.5t-51.5 -59.5v-368h-128v529h111l10 -70q66 85 161 85q71 0 110.5 -42.5zM335 619h-80l-139 125l49 56l130 -88l130 88l49 -56z" />
    <glyph glyph-name="ncommaaccent" unicode="&#x146;" horiz-adv-x="581" 
d="M469.5 501.5q39.5 -42.5 39.5 -118.5v-383h-128v363q0 47 -16.5 66t-48.5 19q-33 0 -59.5 -20.5t-51.5 -59.5v-368h-128v529h111l10 -70q66 85 161 85q71 0 110.5 -42.5zM342 -91.5q20 -19.5 20 -48.5q0 -16 -5.5 -32.5t-21.5 -48.5l-44 -91h-67l28 116q-29 22 -29 56
q0 28 20.5 48t49.5 20t49 -19.5z" />
    <glyph glyph-name="eng" unicode="&#x14b;" horiz-adv-x="581" 
d="M486.5 -80.5q-22.5 -49.5 -63 -79.5t-106.5 -57l-41 93q39 18 60.5 35.5t33 47.5t11.5 80v324q0 47 -16.5 66t-48.5 19q-33 0 -59.5 -20.5t-51.5 -59.5v-368h-128v529h111l10 -70q66 85 161 85q70 0 110 -43t40 -118v-336q0 -78 -22.5 -127.5z" />
    <glyph glyph-name="ntilde" unicode="&#xf1;" horiz-adv-x="581" 
d="M469.5 501.5q39.5 -42.5 39.5 -118.5v-383h-128v363q0 47 -16.5 66t-48.5 19q-33 0 -59.5 -20.5t-51.5 -59.5v-368h-128v529h111l10 -70q66 85 161 85q71 0 110.5 -42.5zM316.5 652.5q-16.5 7.5 -36.5 20.5q-25 18 -41 18q-17 0 -28.5 -10.5t-24.5 -34.5l-69 34
q20 47 50.5 75.5t70.5 28.5q22 0 36.5 -6.5t36.5 -20.5q13 -10 22.5 -14.5t19.5 -4.5q15 0 27 10t26 33l68 -34q-20 -48 -50.5 -75.5t-66.5 -27.5q-24 1 -40.5 8.5z" />
    <glyph glyph-name="o" unicode="o" horiz-adv-x="584" 
d="M475.5 469.5q65.5 -74.5 65.5 -204.5q0 -83 -30 -146.5t-86 -98.5t-133 -35q-117 0 -183 74.5t-66 205.5q0 83 30 146t86.5 98t133.5 35q117 0 182.5 -74.5zM178 265q0 -94 28.5 -138.5t85.5 -44.5t85.5 45t28.5 138t-28.5 137.5t-84.5 44.5q-115 0 -115 -182z" />
    <glyph glyph-name="oacute" unicode="&#xf3;" horiz-adv-x="584" 
d="M475.5 469.5q65.5 -74.5 65.5 -204.5q0 -83 -30 -146.5t-86 -98.5t-133 -35q-117 0 -183 74.5t-66 205.5q0 83 30 146t86.5 98t133.5 35q117 0 182.5 -74.5zM178 265q0 -94 28.5 -138.5t85.5 -44.5t85.5 45t28.5 138t-28.5 137.5t-84.5 44.5q-115 0 -115 -182zM187 630
l-36 65l210 125l52 -100z" />
    <glyph glyph-name="obreve" unicode="&#x14f;" horiz-adv-x="584" 
d="M475.5 469.5q65.5 -74.5 65.5 -204.5q0 -83 -30 -146.5t-86 -98.5t-133 -35q-117 0 -183 74.5t-66 205.5q0 83 30 146t86.5 98t133.5 35q117 0 182.5 -74.5zM178 265q0 -94 28.5 -138.5t85.5 -44.5t85.5 45t28.5 138t-28.5 137.5t-84.5 44.5q-115 0 -115 -182zM178.5 680
q-43.5 43 -49.5 112l75 14q20 -77 87 -77q34 0 56.5 20t31.5 57l76 -14q-6 -69 -50.5 -112t-113.5 -43t-112.5 43z" />
    <glyph glyph-name="ocircumflex" unicode="&#xf4;" horiz-adv-x="584" 
d="M475.5 469.5q65.5 -74.5 65.5 -204.5q0 -83 -30 -146.5t-86 -98.5t-133 -35q-117 0 -183 74.5t-66 205.5q0 83 30 146t86.5 98t133.5 35q117 0 182.5 -74.5zM178 265q0 -94 28.5 -138.5t85.5 -44.5t85.5 45t28.5 138t-28.5 137.5t-84.5 44.5q-115 0 -115 -182zM251 808
h81l139 -126l-49 -55l-130 88l-130 -88l-49 55z" />
    <glyph glyph-name="odieresis" unicode="&#xf6;" horiz-adv-x="584" 
d="M475.5 469.5q65.5 -74.5 65.5 -204.5q0 -83 -30 -146.5t-86 -98.5t-133 -35q-117 0 -183 74.5t-66 205.5q0 83 30 146t86.5 98t133.5 35q117 0 182.5 -74.5zM178 265q0 -94 28.5 -138.5t85.5 -44.5t85.5 45t28.5 138t-28.5 137.5t-84.5 44.5q-115 0 -115 -182zM230 765
q20 -20 20 -49t-20 -49t-50 -20q-29 0 -49.5 20t-20.5 49t20.5 49t49.5 20q30 0 50 -20zM452 765q20 -20 20 -49t-20 -49t-51 -20q-29 0 -49 20t-20 49t20 49t49 20q31 0 51 -20z" />
    <glyph glyph-name="ograve" unicode="&#xf2;" horiz-adv-x="584" 
d="M475.5 469.5q65.5 -74.5 65.5 -204.5q0 -83 -30 -146.5t-86 -98.5t-133 -35q-117 0 -183 74.5t-66 205.5q0 83 30 146t86.5 98t133.5 35q117 0 182.5 -74.5zM178 265q0 -94 28.5 -138.5t85.5 -44.5t85.5 45t28.5 138t-28.5 137.5t-84.5 44.5q-115 0 -115 -182zM396 630
l-225 90l52 100l210 -125z" />
    <glyph glyph-name="ohungarumlaut" unicode="&#x151;" horiz-adv-x="584" 
d="M475.5 469.5q65.5 -74.5 65.5 -204.5q0 -83 -30 -146.5t-86 -98.5t-133 -35q-117 0 -183 74.5t-66 205.5q0 83 30 146t86.5 98t133.5 35q117 0 182.5 -74.5zM178 265q0 -94 28.5 -138.5t85.5 -44.5t85.5 45t28.5 138t-28.5 137.5t-84.5 44.5q-115 0 -115 -182zM241 634
l-72 30l83 183l94 -46zM395 629l-70 32l92 186l93 -48z" />
    <glyph glyph-name="omacron" unicode="&#x14d;" horiz-adv-x="584" 
d="M475.5 469.5q65.5 -74.5 65.5 -204.5q0 -83 -30 -146.5t-86 -98.5t-133 -35q-117 0 -183 74.5t-66 205.5q0 83 30 146t86.5 98t133.5 35q117 0 182.5 -74.5zM178 265q0 -94 28.5 -138.5t85.5 -44.5t85.5 45t28.5 138t-28.5 137.5t-84.5 44.5q-115 0 -115 -182zM146 752
h291v-91h-291v91z" />
    <glyph glyph-name="oslash" unicode="&#xf8;" horiz-adv-x="584" 
d="M512 412.5q29 -62.5 29 -147.5q0 -83 -30 -146.5t-86 -98.5t-133 -35q-21 0 -42 3l-37 -121l-98 29l41 124q-54 34 -83.5 96.5t-29.5 148.5q0 83 30 146t86.5 98t133.5 35q21 0 41 -3l39 121l97 -29l-42 -124q55 -34 84 -96.5zM204.5 402q-30.5 -45 -30.5 -137
q0 -109 33 -151l111 331q-8 2 -25 2q-58 0 -88.5 -45zM410 265q0 108 -33 149l-110 -330q16 -2 25 -2q118 0 118 183z" />
    <glyph glyph-name="oslashacute" unicode="&#x1ff;" horiz-adv-x="584" 
d="M512 412.5q29 -62.5 29 -147.5q0 -83 -30 -146.5t-86 -98.5t-133 -35q-21 0 -42 3l-37 -121l-98 29l41 124q-54 34 -83.5 96.5t-29.5 148.5q0 83 30 146t86.5 98t133.5 35q21 0 41 -3l39 121l97 -29l-42 -124q55 -34 84 -96.5zM204.5 402q-30.5 -45 -30.5 -137
q0 -109 33 -151l111 331q-8 2 -25 2q-58 0 -88.5 -45zM410 265q0 108 -33 149l-110 -330q16 -2 25 -2q118 0 118 183zM187 630l-36 65l210 125l52 -100z" />
    <glyph glyph-name="otilde" unicode="&#xf5;" horiz-adv-x="584" 
d="M475.5 469.5q65.5 -74.5 65.5 -204.5q0 -83 -30 -146.5t-86 -98.5t-133 -35q-117 0 -183 74.5t-66 205.5q0 83 30 146t86.5 98t133.5 35q117 0 182.5 -74.5zM178 265q0 -94 28.5 -138.5t85.5 -44.5t85.5 45t28.5 138t-28.5 137.5t-84.5 44.5q-115 0 -115 -182z
M312.5 652.5q-16.5 7.5 -36.5 20.5q-25 18 -41 18q-17 0 -28.5 -10.5t-24.5 -34.5l-69 34q20 47 50.5 75.5t70.5 28.5q22 0 36.5 -6.5t36.5 -20.5q13 -10 22.5 -14.5t19.5 -4.5q15 0 27 10t26 33l68 -34q-20 -48 -50.5 -75.5t-66.5 -27.5q-24 1 -40.5 8.5z" />
    <glyph glyph-name="oe" unicode="&#x153;" horiz-adv-x="915" 
d="M870 225h-332q7 -77 40.5 -110t89.5 -33q35 0 66 11t66 36l53 -73q-88 -71 -196 -71q-122 0 -185 93q-65 -93 -180 -93q-117 0 -183 74.5t-66 205.5q0 83 30 146t86 98t133 35q117 0 181 -89q61 89 168 89q110 0 171 -70.5t61 -196.5q0 -10 -3 -52zM747 314
q-2 139 -104 139q-47 0 -73 -34.5t-32 -110.5h209v6zM406 265q0 182 -114 182t-114 -182q0 -94 28.5 -138.5t85.5 -44.5q114 0 114 183z" />
    <glyph glyph-name="p" unicode="p" horiz-adv-x="596" 
d="M498.5 471q48.5 -73 48.5 -205q0 -82 -24.5 -145.5t-72 -99.5t-112.5 -36q-84 0 -133 58v-247l-128 -14v747h112l7 -65q30 40 70.5 60t82.5 20q101 0 149.5 -73zM413 265q0 98 -25.5 140.5t-76.5 42.5q-31 0 -58.5 -19.5t-47.5 -52.5v-238q37 -55 97 -55q111 0 111 182z
" />
    <glyph glyph-name="thorn" unicode="&#xfe;" horiz-adv-x="596" 
d="M498.5 471q48.5 -73 48.5 -205q0 -82 -24.5 -145.5t-72 -99.5t-112.5 -36q-84 0 -133 58v-244l-128 -17v959l128 14v-282q29 36 66.5 53.5t77.5 17.5q101 0 149.5 -73zM413 265q0 98 -25.5 140.5t-76.5 42.5q-31 0 -58.5 -19.5t-47.5 -52.5v-238q37 -55 97 -55
q111 0 111 182z" />
    <glyph glyph-name="q" unicode="q" horiz-adv-x="594" 
d="M517 -218l-128 14v263q-25 -35 -62 -54.5t-83 -19.5q-97 0 -149 75t-52 204q0 82 26 145.5t74.5 99t114.5 35.5q81 0 140 -66l8 51h111v-747zM340 98.5q26 16.5 49 51.5v242q-22 28 -46 42t-54 14q-52 0 -81.5 -45.5t-29.5 -137.5q0 -98 26 -140.5t76 -42.5q34 0 60 16.5
z" />
    <glyph glyph-name="r" unicode="r" horiz-adv-x="394" 
d="M391 536l-22 -124q-24 6 -47 6q-47 0 -74 -33.5t-43 -103.5v-281h-128v529h111l12 -104q19 57 55 87.5t83 30.5q29 0 53 -7z" />
    <glyph glyph-name="racute" unicode="&#x155;" horiz-adv-x="394" 
d="M391 536l-22 -124q-24 6 -47 6q-47 0 -74 -33.5t-43 -103.5v-281h-128v529h111l12 -104q19 57 55 87.5t83 30.5q29 0 53 -7zM131 630l-36 65l210 125l52 -100z" />
    <glyph glyph-name="rcaron" unicode="&#x159;" horiz-adv-x="394" 
d="M391 536l-22 -124q-24 6 -47 6q-47 0 -74 -33.5t-43 -103.5v-281h-128v529h111l12 -104q19 57 55 87.5t83 30.5q29 0 53 -7zM275 619h-80l-139 125l49 56l130 -88l130 88l49 -56z" />
    <glyph glyph-name="rcommaaccent" unicode="&#x157;" horiz-adv-x="394" 
d="M391 536l-22 -124q-24 6 -47 6q-47 0 -74 -33.5t-43 -103.5v-281h-128v529h111l12 -104q19 57 55 87.5t83 30.5q29 0 53 -7zM192 -91.5q20 -19.5 20 -48.5q0 -16 -5.5 -32.5t-21.5 -48.5l-44 -91h-67l28 116q-29 22 -29 56q0 28 20.5 48t49.5 20t49 -19.5z" />
    <glyph glyph-name="s" unicode="s" horiz-adv-x="476" 
d="M432 481l-50 -77q-66 45 -130 45q-40 0 -61.5 -14.5t-21.5 -38.5q0 -18 9 -30t32.5 -22.5t69.5 -23.5q86 -23 127.5 -61t41.5 -106q0 -79 -64 -123.5t-159 -44.5q-65 0 -118.5 20t-92.5 55l65 73q66 -53 142 -53q43 0 69 17t26 45q0 24 -9.5 37.5t-34 24.5t-76.5 26
q-81 22 -119 61.5t-38 98.5q0 44 25.5 79t72 55t106.5 20q107 0 188 -63z" />
    <glyph glyph-name="sacute" unicode="&#x15b;" horiz-adv-x="476" 
d="M432 481l-50 -77q-66 45 -130 45q-40 0 -61.5 -14.5t-21.5 -38.5q0 -18 9 -30t32.5 -22.5t69.5 -23.5q86 -23 127.5 -61t41.5 -106q0 -79 -64 -123.5t-159 -44.5q-65 0 -118.5 20t-92.5 55l65 73q66 -53 142 -53q43 0 69 17t26 45q0 24 -9.5 37.5t-34 24.5t-76.5 26
q-81 22 -119 61.5t-38 98.5q0 44 25.5 79t72 55t106.5 20q107 0 188 -63zM142 630l-36 65l210 125l52 -100z" />
    <glyph glyph-name="scaron" unicode="&#x161;" horiz-adv-x="476" 
d="M432 481l-50 -77q-66 45 -130 45q-40 0 -61.5 -14.5t-21.5 -38.5q0 -18 9 -30t32.5 -22.5t69.5 -23.5q86 -23 127.5 -61t41.5 -106q0 -79 -64 -123.5t-159 -44.5q-65 0 -118.5 20t-92.5 55l65 73q66 -53 142 -53q43 0 69 17t26 45q0 24 -9.5 37.5t-34 24.5t-76.5 26
q-81 22 -119 61.5t-38 98.5q0 44 25.5 79t72 55t106.5 20q107 0 188 -63zM287 619h-80l-139 125l49 56l130 -88l130 88l49 -56z" />
    <glyph glyph-name="scedilla" unicode="&#x15f;" horiz-adv-x="476" 
d="M400.5 41.5q-48.5 -42.5 -127.5 -53.5v-40q50 -5 74.5 -30t24.5 -63q0 -50 -38 -79t-100 -29q-30 0 -57.5 8t-44.5 20l31 63q32 -17 63 -17q22 0 35.5 8.5t13.5 26.5q0 19 -22 28.5t-69 9.5l11 92q-55 4 -100.5 23.5t-79.5 50.5l65 73q66 -53 142 -53q43 0 69 17t26 45
q0 24 -9.5 37.5t-34 24.5t-76.5 26q-81 22 -119 61.5t-38 98.5q0 44 25.5 79t72 55t106.5 20q107 0 188 -63l-50 -77q-66 45 -130 45q-40 0 -61.5 -14.5t-21.5 -38.5q0 -18 9 -30t32.5 -22.5t69.5 -23.5q86 -23 127.5 -61t41.5 -106q0 -69 -48.5 -111.5z" />
    <glyph glyph-name="scircumflex" unicode="&#x15d;" horiz-adv-x="476" 
d="M432 481l-50 -77q-66 45 -130 45q-40 0 -61.5 -14.5t-21.5 -38.5q0 -18 9 -30t32.5 -22.5t69.5 -23.5q86 -23 127.5 -61t41.5 -106q0 -79 -64 -123.5t-159 -44.5q-65 0 -118.5 20t-92.5 55l65 73q66 -53 142 -53q43 0 69 17t26 45q0 24 -9.5 37.5t-34 24.5t-76.5 26
q-81 22 -119 61.5t-38 98.5q0 44 25.5 79t72 55t106.5 20q107 0 188 -63zM206 808h81l139 -126l-49 -55l-130 88l-130 -88l-49 55z" />
    <glyph glyph-name="scommaaccent" unicode="&#x219;" horiz-adv-x="476" 
d="M432 481l-50 -77q-66 45 -130 45q-40 0 -61.5 -14.5t-21.5 -38.5q0 -18 9 -30t32.5 -22.5t69.5 -23.5q86 -23 127.5 -61t41.5 -106q0 -79 -64 -123.5t-159 -44.5q-65 0 -118.5 20t-92.5 55l65 73q66 -53 142 -53q43 0 69 17t26 45q0 24 -9.5 37.5t-34 24.5t-76.5 26
q-81 22 -119 61.5t-38 98.5q0 44 25.5 79t72 55t106.5 20q107 0 188 -63zM290 -91.5q20 -19.5 20 -48.5q0 -16 -5.5 -32.5t-21.5 -48.5l-44 -91h-67l28 116q-29 22 -29 56q0 28 20.5 48t49.5 20t49 -19.5z" />
    <glyph glyph-name="germandbls" unicode="&#xdf;" horiz-adv-x="600" 
d="M401.5 735q44.5 -20 67.5 -54t23 -76q0 -37 -16 -60.5t-46 -49.5q-22 -19 -32.5 -33t-11.5 -33q1 -21 17 -37t50 -40q37 -26 60.5 -47.5t41 -56.5t17.5 -84q0 -54 -25.5 -95t-69.5 -62.5t-96 -21.5q-63 0 -111 25l38 88q23 -13 58 -13q34 0 54 21t20 60q1 39 -20 64
t-62 55q-43 32 -64.5 58t-21.5 69q0 35 13.5 56t39.5 44q24 23 35 39.5t10 43.5q0 31 -21 48.5t-54 17.5q-90 0 -90 -123v-538h-128v536q0 104 57 161.5t163 57.5q60 0 104.5 -20z" />
    <glyph glyph-name="t" unicode="t" horiz-adv-x="375" 
d="M317.5 -5q-34.5 -10 -70.5 -10q-78 1 -118.5 44.5t-40.5 128.5v279h-83v92h83v117l128 15v-132h123l-13 -92h-110v-276q0 -39 13.5 -56t42.5 -17q30 0 63 20l45 -83q-28 -20 -62.5 -30z" />
    <glyph glyph-name="tbar" unicode="&#x167;" horiz-adv-x="376" 
d="M317.5 -5q-34.5 -10 -70.5 -10q-78 1 -118.5 44.5t-40.5 128.5v112h-73v89h73v78h-83v92h83v117l128 15v-132h123l-13 -92h-110v-78h113l-13 -89h-100v-109q0 -39 13.5 -56t42.5 -17q30 0 63 20l45 -83q-28 -20 -62.5 -30z" />
    <glyph glyph-name="tcaron" unicode="&#x165;" horiz-adv-x="375" 
d="M317.5 -5q-34.5 -10 -70.5 -10q-78 1 -118.5 44.5t-40.5 128.5v279h-83v92h83v117l128 15v-132h123l-13 -92h-110v-276q0 -39 13.5 -56t42.5 -17q30 0 63 20l45 -83q-28 -20 -62.5 -30zM329 565l-69 8l13 205l102 -12z" />
    <glyph glyph-name="tcedilla" unicode="&#x163;" horiz-adv-x="375" 
d="M343 -81q24 -25 24 -63q0 -50 -38 -79t-99 -29q-31 0 -58 7.5t-45 19.5l31 64q31 -17 64 -17q48 0 48 35q0 19 -21.5 28t-69.5 9l13 98q-52 14 -78 56t-26 110v279h-83v92h83v117l128 15v-132h123l-13 -92h-110v-276q0 -39 13.5 -56t42.5 -17q30 0 63 20l45 -83
q-47 -33 -111 -39v-37q50 -5 74 -30z" />
    <glyph glyph-name="uni021B" unicode="&#x21b;" horiz-adv-x="375" 
d="M317.5 -5q-34.5 -10 -70.5 -10q-78 1 -118.5 44.5t-40.5 128.5v279h-83v92h83v117l128 15v-132h123l-13 -92h-110v-276q0 -39 13.5 -56t42.5 -17q30 0 63 20l45 -83q-28 -20 -62.5 -30zM285 -91.5q20 -19.5 20 -48.5q0 -16 -5.5 -32.5t-21.5 -48.5l-44 -91h-67l28 116
q-29 22 -29 56q0 28 20.5 48t49.5 20t49 -19.5z" />
    <glyph glyph-name="u" unicode="u" horiz-adv-x="577" 
d="M389 0l-7 74q-29 -45 -68.5 -67t-93.5 -22q-71 0 -109.5 43.5t-38.5 120.5v380h128v-364q0 -45 15.5 -64t49.5 -19q61 0 107 75v372h128v-529h-111z" />
    <glyph glyph-name="uacute" unicode="&#xfa;" horiz-adv-x="577" 
d="M389 0l-7 74q-29 -45 -68.5 -67t-93.5 -22q-71 0 -109.5 43.5t-38.5 120.5v380h128v-364q0 -45 15.5 -64t49.5 -19q61 0 107 75v372h128v-529h-111zM181 630l-36 65l210 125l52 -100z" />
    <glyph glyph-name="ubreve" unicode="&#x16d;" horiz-adv-x="577" 
d="M389 0l-7 74q-29 -45 -68.5 -67t-93.5 -22q-71 0 -109.5 43.5t-38.5 120.5v380h128v-364q0 -45 15.5 -64t49.5 -19q61 0 107 75v372h128v-529h-111zM172.5 680q-43.5 43 -49.5 112l75 14q20 -77 87 -77q34 0 56.5 20t31.5 57l76 -14q-6 -69 -50.5 -112t-113.5 -43
t-112.5 43z" />
    <glyph glyph-name="ucircumflex" unicode="&#xfb;" horiz-adv-x="577" 
d="M389 0l-7 74q-29 -45 -68.5 -67t-93.5 -22q-71 0 -109.5 43.5t-38.5 120.5v380h128v-364q0 -45 15.5 -64t49.5 -19q61 0 107 75v372h128v-529h-111zM245 808h81l139 -126l-49 -55l-130 88l-130 -88l-49 55z" />
    <glyph glyph-name="udieresis" unicode="&#xfc;" horiz-adv-x="577" 
d="M389 0l-7 74q-29 -45 -68.5 -67t-93.5 -22q-71 0 -109.5 43.5t-38.5 120.5v380h128v-364q0 -45 15.5 -64t49.5 -19q61 0 107 75v372h128v-529h-111zM225 765q20 -20 20 -49t-20 -49t-50 -20q-29 0 -49.5 20t-20.5 49t20.5 49t49.5 20q30 0 50 -20zM447 765q20 -20 20 -49
t-20 -49t-51 -20q-29 0 -49 20t-20 49t20 49t49 20q31 0 51 -20z" />
    <glyph glyph-name="ugrave" unicode="&#xf9;" horiz-adv-x="577" 
d="M389 0l-7 74q-29 -45 -68.5 -67t-93.5 -22q-71 0 -109.5 43.5t-38.5 120.5v380h128v-364q0 -45 15.5 -64t49.5 -19q61 0 107 75v372h128v-529h-111zM390 630l-225 90l52 100l210 -125z" />
    <glyph glyph-name="uhungarumlaut" unicode="&#x171;" horiz-adv-x="577" 
d="M389 0l-7 74q-29 -45 -68.5 -67t-93.5 -22q-71 0 -109.5 43.5t-38.5 120.5v380h128v-364q0 -45 15.5 -64t49.5 -19q61 0 107 75v372h128v-529h-111zM235 634l-72 30l83 183l94 -46zM389 629l-70 32l92 186l93 -48z" />
    <glyph glyph-name="umacron" unicode="&#x16b;" horiz-adv-x="577" 
d="M389 0l-7 74q-29 -45 -68.5 -67t-93.5 -22q-71 0 -109.5 43.5t-38.5 120.5v380h128v-364q0 -45 15.5 -64t49.5 -19q61 0 107 75v372h128v-529h-111zM140 752h291v-91h-291v91z" />
    <glyph glyph-name="uogonek" unicode="&#x173;" horiz-adv-x="577" 
d="M500 0q-69 -28 -95 -54t-26 -53q0 -47 55 -47q27 0 61 7l-10 -85q-37 -7 -67 -7q-61 0 -99 30t-38 79q0 45 27 79t80 60l-6 65q-29 -45 -68.5 -67t-93.5 -22q-71 0 -109.5 43.5t-38.5 120.5v380h128v-364q0 -45 15.5 -64t49.5 -19q61 0 107 75v372h128v-529z" />
    <glyph glyph-name="uring" unicode="&#x16f;" horiz-adv-x="577" 
d="M389 0l-7 74q-29 -45 -68.5 -67t-93.5 -22q-71 0 -109.5 43.5t-38.5 120.5v380h128v-364q0 -45 15.5 -64t49.5 -19q61 0 107 75v372h128v-529h-111zM378 818.5q35 -34.5 35 -85.5q0 -50 -35.5 -85t-91.5 -35q-57 0 -92.5 35t-35.5 85q0 51 35.5 85.5t92.5 34.5t92 -34.5z
M250 772q-13 -14 -13 -39t13 -38.5t36 -13.5q22 0 35 13.5t13 38.5t-13 39t-35 14q-23 0 -36 -14z" />
    <glyph glyph-name="utilde" unicode="&#x169;" horiz-adv-x="577" 
d="M389 0l-7 74q-29 -45 -68.5 -67t-93.5 -22q-71 0 -109.5 43.5t-38.5 120.5v380h128v-364q0 -45 15.5 -64t49.5 -19q61 0 107 75v372h128v-529h-111zM306.5 652.5q-16.5 7.5 -36.5 20.5q-25 18 -41 18q-17 0 -28.5 -10.5t-24.5 -34.5l-69 34q20 47 50.5 75.5t70.5 28.5
q22 0 36.5 -6.5t36.5 -20.5q13 -10 22.5 -14.5t19.5 -4.5q15 0 27 10t26 33l68 -34q-20 -48 -50.5 -75.5t-66.5 -27.5q-24 1 -40.5 8.5z" />
    <glyph glyph-name="v" unicode="v" horiz-adv-x="504" 
d="M177 0l-175 529h139l113 -426l116 426h132l-172 -529h-153z" />
    <glyph glyph-name="w" unicode="w" horiz-adv-x="734" 
d="M448 0l-80 415l-82 -415h-157l-117 529h128l74 -435l92 435h131l84 -435l79 435h123l-115 -529h-160z" />
    <glyph glyph-name="wacute" unicode="&#x1e83;" horiz-adv-x="734" 
d="M448 0l-80 415l-82 -415h-157l-117 529h128l74 -435l92 435h131l84 -435l79 435h123l-115 -529h-160zM262 630l-36 65l210 125l52 -100z" />
    <glyph glyph-name="wcircumflex" unicode="&#x175;" horiz-adv-x="734" 
d="M448 0l-80 415l-82 -415h-157l-117 529h128l74 -435l92 435h131l84 -435l79 435h123l-115 -529h-160zM326 808h81l139 -126l-49 -55l-130 88l-130 -88l-49 55z" />
    <glyph glyph-name="wdieresis" unicode="&#x1e85;" horiz-adv-x="734" 
d="M448 0l-80 415l-82 -415h-157l-117 529h128l74 -435l92 435h131l84 -435l79 435h123l-115 -529h-160zM306 765q20 -20 20 -49t-20 -49t-50 -20q-29 0 -49.5 20t-20.5 49t20.5 49t49.5 20q30 0 50 -20zM528 765q20 -20 20 -49t-20 -49t-51 -20q-29 0 -49 20t-20 49t20 49
t49 20q31 0 51 -20z" />
    <glyph glyph-name="wgrave" unicode="&#x1e81;" horiz-adv-x="734" 
d="M448 0l-80 415l-82 -415h-157l-117 529h128l74 -435l92 435h131l84 -435l79 435h123l-115 -529h-160zM471 630l-225 90l52 100l210 -125z" />
    <glyph glyph-name="x" unicode="x" horiz-adv-x="500" 
d="M246 210l-108 -210h-141l176 279l-158 250h146l90 -180l89 180h139l-153 -246l177 -283h-148z" />
    <glyph glyph-name="y" unicode="y" horiz-adv-x="506" 
d="M236 -154.5q-65 -54.5 -178 -63.5l-13 93q52 8 83.5 22.5t50.5 38.5t35 64h-44l-168 529h136l115 -444l120 444h132l-172 -531q-32 -98 -97 -152.5z" />
    <glyph glyph-name="yacute" unicode="&#xfd;" horiz-adv-x="506" 
d="M236 -154.5q-65 -54.5 -178 -63.5l-13 93q52 8 83.5 22.5t50.5 38.5t35 64h-44l-168 529h136l115 -444l120 444h132l-172 -531q-32 -98 -97 -152.5zM148 630l-36 65l210 125l52 -100z" />
    <glyph glyph-name="ycircumflex" unicode="&#x177;" horiz-adv-x="506" 
d="M236 -154.5q-65 -54.5 -178 -63.5l-13 93q52 8 83.5 22.5t50.5 38.5t35 64h-44l-168 529h136l115 -444l120 444h132l-172 -531q-32 -98 -97 -152.5zM212 808h81l139 -126l-49 -55l-130 88l-130 -88l-49 55z" />
    <glyph glyph-name="ydieresis" unicode="&#xff;" horiz-adv-x="506" 
d="M236 -154.5q-65 -54.5 -178 -63.5l-13 93q52 8 83.5 22.5t50.5 38.5t35 64h-44l-168 529h136l115 -444l120 444h132l-172 -531q-32 -98 -97 -152.5zM192 765q20 -20 20 -49t-20 -49t-50 -20q-29 0 -49.5 20t-20.5 49t20.5 49t49.5 20q30 0 50 -20zM414 765q20 -20 20 -49
t-20 -49t-51 -20q-29 0 -49 20t-20 49t20 49t49 20q31 0 51 -20z" />
    <glyph glyph-name="ygrave" unicode="&#x1ef3;" horiz-adv-x="506" 
d="M236 -154.5q-65 -54.5 -178 -63.5l-13 93q52 8 83.5 22.5t50.5 38.5t35 64h-44l-168 529h136l115 -444l120 444h132l-172 -531q-32 -98 -97 -152.5zM357 630l-225 90l52 100l210 -125z" />
    <glyph glyph-name="z" unicode="z" horiz-adv-x="449" 
d="M165 100h261l-13 -100h-395v92l257 337h-235v100h381v-92z" />
    <glyph glyph-name="zacute" unicode="&#x17a;" horiz-adv-x="449" 
d="M165 100h261l-13 -100h-395v92l257 337h-235v100h381v-92zM121 630l-36 65l210 125l52 -100z" />
    <glyph glyph-name="zcaron" unicode="&#x17e;" horiz-adv-x="449" 
d="M165 100h261l-13 -100h-395v92l257 337h-235v100h381v-92zM266 619h-80l-139 125l49 56l130 -88l130 88l49 -56z" />
    <glyph glyph-name="zdotaccent" unicode="&#x17c;" horiz-adv-x="449" 
d="M165 100h261l-13 -100h-395v92l257 337h-235v100h381v-92zM284.5 774.5q22.5 -22.5 22.5 -55.5t-22.5 -55t-58.5 -22q-35 0 -57.5 22t-22.5 55t22.5 55.5t57.5 22.5q36 0 58.5 -22.5z" />
    <glyph glyph-name="cacute.loclPLK" horiz-adv-x="478" 
d="M383.5 529q41.5 -15 78.5 -47l-58 -78q-26 20 -51 29.5t-55 9.5q-119 0 -119 -181q0 -92 31 -132.5t88 -40.5q29 0 52.5 9.5t52.5 31.5l59 -84q-75 -61 -171 -61q-76 0 -132 33.5t-86 95.5t-30 146t30 148.5t86 100t131 35.5q52 0 93.5 -15zM286 579l-59 35l99 181
l97 -58z" />
    <glyph glyph-name="nacute.loclPLK" horiz-adv-x="581" 
d="M469.5 501.5q39.5 -42.5 39.5 -118.5v-383h-128v363q0 47 -16.5 66t-48.5 19q-33 0 -59.5 -20.5t-51.5 -59.5v-368h-128v529h111l10 -70q66 85 161 85q71 0 110.5 -42.5zM291 579l-59 35l99 181l97 -58z" />
    <glyph glyph-name="oacute.loclPLK" horiz-adv-x="584" 
d="M475.5 469.5q65.5 -74.5 65.5 -204.5q0 -83 -30 -146.5t-86 -98.5t-133 -35q-117 0 -183 74.5t-66 205.5q0 83 30 146t86.5 98t133.5 35q117 0 182.5 -74.5zM178 265q0 -94 28.5 -138.5t85.5 -44.5t85.5 45t28.5 138t-28.5 137.5t-84.5 44.5q-115 0 -115 -182zM288 579
l-59 35l99 181l97 -58z" />
    <glyph glyph-name="sacute.loclPLK" horiz-adv-x="476" 
d="M432 481l-50 -77q-66 45 -130 45q-40 0 -61.5 -14.5t-21.5 -38.5q0 -18 9 -30t32.5 -22.5t69.5 -23.5q86 -23 127.5 -61t41.5 -106q0 -79 -64 -123.5t-159 -44.5q-65 0 -118.5 20t-92.5 55l65 73q66 -53 142 -53q43 0 69 17t26 45q0 24 -9.5 37.5t-34 24.5t-76.5 26
q-81 22 -119 61.5t-38 98.5q0 44 25.5 79t72 55t106.5 20q107 0 188 -63zM243 579l-59 35l99 181l97 -58z" />
    <glyph glyph-name="zacute.loclPLK" horiz-adv-x="449" 
d="M165 100h261l-13 -100h-395v92l257 337h-235v100h381v-92zM222 579l-59 35l99 181l97 -58z" />
    <glyph glyph-name="f_i" horiz-adv-x="592" 
d="M458 717l-39 -85q-53 25 -111 25q-50 0 -69 -17.5t-19 -56.5v-54h295v-529h-128v437h-167v-437h-128v437h-82v92h82v56q0 77 50.5 123.5t153.5 46.5q84 0 162 -38z" />
    <glyph glyph-name="f_l" horiz-adv-x="617" 
d="M518 -15q-60 0 -92 34.5t-32 100.5v525q-46 14 -93 14q-45 0 -63 -17t-18 -56v-57h114l-15 -92h-99v-437h-128v437h-82v92h82v58q0 75 49.5 121.5t142.5 46.5q59 0 118 -19l120 13v-620q0 -22 7 -31.5t23 -9.5t29 5l28 -90q-43 -18 -91 -18z" />
    <glyph glyph-name="cacute.sc.loclPLK" horiz-adv-x="509" 
d="M407 562.5q42 -15.5 81 -46.5l-63 -74q-52 41 -110 41q-63 0 -101 -49t-38 -149q0 -101 38 -150t103 -49q34 0 60 12t59 35l60 -74q-33 -32 -80 -52t-106 -20q-80 0 -140 34.5t-93.5 101.5t-33.5 162q0 91 34.5 157.5t94.5 101t136 34.5q57 0 99 -15.5zM310 623l-59 35
l99 180l97 -57z" />
    <glyph glyph-name="nacute.sc.loclPLK" horiz-adv-x="612" 
d="M368 0l-192 450q2 -12 7.5 -54t9 -88t3.5 -94v-214h-115v566h160l195 -451q-19 105 -19 213v238h115v-566h-164zM308 623l-59 35l99 180l97 -57z" />
    <glyph glyph-name="oacute.sc.loclPLK" horiz-adv-x="617" 
d="M503.5 500.5q70.5 -77.5 70.5 -216.5t-71 -218t-194 -79q-124 0 -195 78t-71 219q0 90 32.5 156.5t92.5 102t141 35.5q124 0 194.5 -77.5zM210 436q-34 -48 -34 -152q0 -106 34 -154.5t99 -48.5q66 0 99 48t33 155q0 104 -33.5 152t-98.5 48t-99 -48zM306 623l-59 35
l99 180l97 -57z" />
    <glyph glyph-name="sacute.sc.loclPLK" horiz-adv-x="505" 
d="M372 560q49 -18 89 -54l-63 -70q-60 48 -130 48q-42 0 -66 -15t-24 -44q0 -19 9.5 -31t34 -23t74.5 -26q89 -27 133 -67.5t44 -113.5q0 -52 -27.5 -92t-80 -62.5t-123.5 -22.5q-72 0 -129 21.5t-96 58.5l65 73q67 -58 155 -58q47 0 75 19.5t28 52.5q0 22 -9.5 36.5
t-33.5 26.5t-69 25q-99 29 -140.5 69.5t-41.5 104.5q0 75 60.5 118.5t152.5 43.5q64 0 113 -18zM255 623l-59 35l99 180l97 -57z" />
    <glyph glyph-name="zacute.sc.loclPLK" horiz-adv-x="479" 
d="M173 102h271l-13 -102h-408v96l275 371h-247v99h391v-97zM242 623l-59 35l99 180l97 -57z" />
    <glyph glyph-name="a.sc" horiz-adv-x="513" 
d="M161 125l-33 -125h-133l185 566h154l183 -566h-134l-34 125h-188zM255 473l-69 -255h138z" />
    <glyph glyph-name="aacute.sc" horiz-adv-x="513" 
d="M161 125l-33 -125h-133l185 566h154l183 -566h-134l-34 125h-188zM255 473l-69 -255h138zM159 660l-37 66l210 124l52 -100z" />
    <glyph glyph-name="abreve.sc" horiz-adv-x="513" 
d="M161 125l-33 -125h-133l185 566h154l183 -566h-134l-34 125h-188zM255 473l-69 -255h138zM142.5 710q-43.5 43 -49.5 112l76 14q19 -77 86 -77q34 0 56.5 20t32.5 57l75 -14q-6 -69 -50.5 -112t-113.5 -43t-112.5 43z" />
    <glyph glyph-name="acircumflex.sc" horiz-adv-x="513" 
d="M161 125l-33 -125h-133l185 566h154l183 -566h-134l-34 125h-188zM255 473l-69 -255h138zM217 839h80l139 -126l-49 -56l-130 88l-130 -88l-49 56z" />
    <glyph glyph-name="adieresis.sc" horiz-adv-x="513" 
d="M161 125l-33 -125h-133l185 566h154l183 -566h-134l-34 125h-188zM255 473l-69 -255h138zM195 795q20 -20 20 -49t-20 -49t-50 -20q-29 0 -49.5 20t-20.5 49t20.5 49t49.5 20q30 0 50 -20zM417 795q20 -20 20 -49t-20 -49t-50 -20q-29 0 -49.5 20t-20.5 49t20.5 49
t49.5 20q30 0 50 -20z" />
    <glyph glyph-name="agrave.sc" horiz-adv-x="513" 
d="M161 125l-33 -125h-133l185 566h154l183 -566h-134l-34 125h-188zM255 473l-69 -255h138zM354 660l-225 90l52 100l210 -124z" />
    <glyph glyph-name="amacron.sc" horiz-adv-x="513" 
d="M161 125l-33 -125h-133l185 566h154l183 -566h-134l-34 125h-188zM255 473l-69 -255h138zM111 782h291v-91h-291v91z" />
    <glyph glyph-name="aogonek.sc" horiz-adv-x="513" 
d="M369 -53.5q-26 -25.5 -26 -53.5q0 -47 55 -47q27 0 61 7l-10 -85q-37 -7 -67 -7q-61 0 -99 30t-38 79q0 50 33.5 86.5t98.5 63.5l-28 105h-188l-33 -125h-133l185 566h154l183 -566h-53q-69 -28 -95 -53.5zM255 473l-69 -255h138z" />
    <glyph glyph-name="aring.sc" horiz-adv-x="513" 
d="M161 125l-33 -125h-133l185 566h154l183 -566h-134l-34 125h-188zM255 473l-69 -255h138zM348.5 848.5q35.5 -34.5 35.5 -84.5q0 -51 -35 -85.5t-92 -34.5t-92.5 34.5t-35.5 85.5q0 50 35.5 84.5t92.5 34.5q56 0 91.5 -34.5zM221 802.5q-13 -13.5 -13 -38.5t13 -39
t36 -14q22 0 35 14t13 39t-13 38.5t-35 13.5q-23 0 -36 -13.5z" />
    <glyph glyph-name="atilde.sc" horiz-adv-x="513" 
d="M161 125l-33 -125h-133l185 566h154l183 -566h-134l-34 125h-188zM255 473l-69 -255h138zM277.5 682.5q-17.5 7.5 -36.5 20.5q-13 9 -22 13.5t-19 4.5q-17 0 -28.5 -10.5t-24.5 -34.5l-69 34q20 46 50.5 75t70.5 29q22 0 36.5 -6.5t36.5 -20.5q13 -10 22.5 -14.5
t19.5 -4.5q15 0 27 10t26 33l68 -33q-20 -48 -50 -75.5t-67 -27.5q-23 0 -40.5 7.5z" />
    <glyph glyph-name="ae.sc" horiz-adv-x="734" 
d="M692 0h-305l-25 125h-198l-46 -125h-136l236 566h441l-14 -92h-238l31 -141h214v-91h-194l32 -149h202v-93zM292 472l-93 -254h144z" />
    <glyph glyph-name="aeacute.sc" horiz-adv-x="734" 
d="M692 0h-305l-25 125h-198l-46 -125h-136l236 566h441l-14 -92h-238l31 -141h214v-91h-194l32 -149h202v-93zM292 472l-93 -254h144zM313 660l-37 66l210 124l52 -100z" />
    <glyph glyph-name="b.sc" horiz-adv-x="558" 
d="M523 165q0 -90 -67 -127.5t-188 -37.5h-187v567h163q123 0 188 -34.5t65 -111.5q0 -49 -31.5 -79.5t-77.5 -41.5q135 -25 135 -135zM208 339h62q46 0 72 17.5t26 53.5t-27.5 51t-84.5 15h-48v-137zM359 109.5q31 16.5 31 61.5q0 43 -30 63t-81 20h-71v-161h61
q59 0 90 16.5z" />
    <glyph glyph-name="c.sc" horiz-adv-x="509" 
d="M407 562.5q42 -15.5 81 -46.5l-63 -74q-52 41 -110 41q-63 0 -101 -49t-38 -149q0 -101 38 -150t103 -49q34 0 60 12t59 35l60 -74q-33 -32 -80 -52t-106 -20q-80 0 -140 34.5t-93.5 101.5t-33.5 162q0 91 34.5 157.5t94.5 101t136 34.5q57 0 99 -15.5z" />
    <glyph glyph-name="cacute.sc" horiz-adv-x="509" 
d="M407 562.5q42 -15.5 81 -46.5l-63 -74q-52 41 -110 41q-63 0 -101 -49t-38 -149q0 -101 38 -150t103 -49q34 0 60 12t59 35l60 -74q-33 -32 -80 -52t-106 -20q-80 0 -140 34.5t-93.5 101.5t-33.5 162q0 91 34.5 157.5t94.5 101t136 34.5q57 0 99 -15.5zM217 660l-37 66
l210 124l52 -100z" />
    <glyph glyph-name="ccaron.sc" horiz-adv-x="509" 
d="M407 562.5q42 -15.5 81 -46.5l-63 -74q-52 41 -110 41q-63 0 -101 -49t-38 -149q0 -101 38 -150t103 -49q34 0 60 12t59 35l60 -74q-33 -32 -80 -52t-106 -20q-80 0 -140 34.5t-93.5 101.5t-33.5 162q0 91 34.5 157.5t94.5 101t136 34.5q57 0 99 -15.5zM355 649h-81
l-139 126l49 56l130 -89l131 89l48 -56z" />
    <glyph glyph-name="ccedilla.sc" horiz-adv-x="509" 
d="M407 -82q24 -25 24 -63q0 -50 -38 -79t-99 -29q-31 0 -58 7.5t-45 20.5l31 63q17 -9 31.5 -13t32.5 -4q48 0 48 35q0 19 -21.5 28.5t-69.5 9.5l12 97q-98 17 -155 93t-57 201q0 91 34.5 157.5t94.5 101t136 34.5q57 0 99 -15.5t81 -46.5l-63 -74q-52 41 -110 41
q-63 0 -101 -49t-38 -149q0 -101 38 -150t103 -49q34 0 60 12t59 35l60 -74q-29 -29 -70 -48.5t-93 -23.5v-39q50 -5 74 -30z" />
    <glyph glyph-name="ccircumflex.sc" horiz-adv-x="509" 
d="M407 562.5q42 -15.5 81 -46.5l-63 -74q-52 41 -110 41q-63 0 -101 -49t-38 -149q0 -101 38 -150t103 -49q34 0 60 12t59 35l60 -74q-33 -32 -80 -52t-106 -20q-80 0 -140 34.5t-93.5 101.5t-33.5 162q0 91 34.5 157.5t94.5 101t136 34.5q57 0 99 -15.5zM274 839h80
l139 -126l-49 -56l-130 88l-130 -88l-49 56z" />
    <glyph glyph-name="cdotaccent.sc" horiz-adv-x="509" 
d="M407 562.5q42 -15.5 81 -46.5l-63 -74q-52 41 -110 41q-63 0 -101 -49t-38 -149q0 -101 38 -150t103 -49q34 0 60 12t59 35l60 -74q-33 -32 -80 -52t-106 -20q-80 0 -140 34.5t-93.5 101.5t-33.5 162q0 91 34.5 157.5t94.5 101t136 34.5q57 0 99 -15.5zM371.5 804.5
q22.5 -22.5 22.5 -55.5t-22.5 -55t-58.5 -22q-35 0 -57.5 22t-22.5 55t22.5 55.5t57.5 22.5q36 0 58.5 -22.5z" />
    <glyph glyph-name="d.sc" horiz-adv-x="589" 
d="M461.5 506q84.5 -60 84.5 -219q0 -157 -83 -222t-211 -65h-171v566h157q139 0 223.5 -60zM208 93h53q73 0 113 42.5t40 151.5q0 107 -41 146.5t-116 39.5h-49v-380z" />
    <glyph glyph-name="eth.sc" horiz-adv-x="575" 
d="M448 507q84 -60 84 -220q0 -158 -82.5 -222.5t-210.5 -64.5h-172v251h-57v80h57v236h157q140 0 224 -60zM360 135.5q40 42.5 40 151.5q0 107 -41 147t-115 40h-49v-143h97v-80h-97v-158h52q73 0 113 42.5z" />
    <glyph glyph-name="dcaron.sc" horiz-adv-x="589" 
d="M461.5 506q84.5 -60 84.5 -219q0 -157 -83 -222t-211 -65h-171v566h157q139 0 223.5 -60zM208 93h53q73 0 113 42.5t40 151.5q0 107 -41 146.5t-116 39.5h-49v-380zM315 649h-81l-139 126l49 56l130 -89l131 89l48 -56z" />
    <glyph glyph-name="dcroat.sc" horiz-adv-x="575" 
d="M448 507q84 -60 84 -220q0 -158 -82.5 -222.5t-210.5 -64.5h-172v251h-57v80h57v236h157q140 0 224 -60zM360 135.5q40 42.5 40 151.5q0 107 -41 147t-115 40h-49v-143h97v-80h-97v-158h52q73 0 113 42.5z" />
    <glyph glyph-name="e.sc" horiz-adv-x="484" 
d="M208 474v-140h189v-91h-189v-150h231v-93h-358v566h357l-13 -92h-217z" />
    <glyph glyph-name="eacute.sc" horiz-adv-x="484" 
d="M208 474v-140h189v-91h-189v-150h231v-93h-358v566h357l-13 -92h-217zM164 660l-37 66l210 124l52 -100z" />
    <glyph glyph-name="ebreve.sc" horiz-adv-x="484" 
d="M208 474v-140h189v-91h-189v-150h231v-93h-358v566h357l-13 -92h-217zM147.5 710q-43.5 43 -49.5 112l76 14q19 -77 86 -77q34 0 56.5 20t32.5 57l75 -14q-6 -69 -50.5 -112t-113.5 -43t-112.5 43z" />
    <glyph glyph-name="ecaron.sc" horiz-adv-x="484" 
d="M208 474v-140h189v-91h-189v-150h231v-93h-358v566h357l-13 -92h-217zM302 649h-81l-139 126l49 56l130 -89l131 89l48 -56z" />
    <glyph glyph-name="ecircumflex.sc" horiz-adv-x="484" 
d="M208 474v-140h189v-91h-189v-150h231v-93h-358v566h357l-13 -92h-217zM221 839h80l139 -126l-49 -56l-130 88l-130 -88l-49 56z" />
    <glyph glyph-name="edieresis.sc" horiz-adv-x="484" 
d="M208 474v-140h189v-91h-189v-150h231v-93h-358v566h357l-13 -92h-217zM200 795q20 -20 20 -49t-20 -49t-50 -20q-29 0 -49.5 20t-20.5 49t20.5 49t49.5 20q30 0 50 -20zM422 795q20 -20 20 -49t-20 -49t-50 -20q-29 0 -49.5 20t-20.5 49t20.5 49t49.5 20q30 0 50 -20z
" />
    <glyph glyph-name="edotaccent.sc" horiz-adv-x="484" 
d="M208 474v-140h189v-91h-189v-150h231v-93h-358v566h357l-13 -92h-217zM318.5 804.5q22.5 -22.5 22.5 -55.5t-22.5 -55t-58.5 -22q-35 0 -57.5 22t-22.5 55t22.5 55.5t57.5 22.5q36 0 58.5 -22.5z" />
    <glyph glyph-name="egrave.sc" horiz-adv-x="484" 
d="M208 474v-140h189v-91h-189v-150h231v-93h-358v566h357l-13 -92h-217zM358 660l-225 90l52 100l210 -124z" />
    <glyph glyph-name="emacron.sc" horiz-adv-x="484" 
d="M208 474v-140h189v-91h-189v-150h231v-93h-358v566h357l-13 -92h-217zM115 782h291v-91h-291v91z" />
    <glyph glyph-name="eogonek.sc" horiz-adv-x="484" 
d="M314.5 -54q-25.5 -26 -25.5 -53q0 -47 55 -47q27 0 61 7l-10 -85q-37 -7 -67 -7q-61 0 -99 30t-38 79q0 45 33.5 78t92.5 52h-236v566h357l-13 -92h-217v-140h189v-91h-189v-150h231v-93h-30q-69 -28 -94.5 -54z" />
    <glyph glyph-name="f.sc" horiz-adv-x="446" 
d="M208 474v-154h180v-92h-180v-228h-127v566h348l-14 -92h-207z" />
    <glyph glyph-name="f_i.sc" horiz-adv-x="735" 
d="M208 474v-154h180v-92h-180v-228h-127v566h348l-14 -92h-207zM526 0v566h128v-566h-128z" />
    <glyph glyph-name="f_l.sc" horiz-adv-x="908" 
d="M208 474v-154h180v-92h-180v-228h-127v566h348l-14 -92h-207zM891 102l-14 -102h-351v566h127v-464h238z" />
    <glyph glyph-name="fi.sc" horiz-adv-x="735" 
d="M208 474v-154h180v-92h-180v-228h-127v566h348l-14 -92h-207zM526 0v566h128v-566h-128z" />
    <glyph glyph-name="fl.sc" horiz-adv-x="908" 
d="M208 474v-154h180v-92h-180v-228h-127v566h348l-14 -92h-207zM891 102l-14 -102h-351v566h127v-464h238z" />
    <glyph glyph-name="g.sc" horiz-adv-x="575" 
d="M519 510l-69 -70q-30 23 -58 33.5t-64 10.5q-67 0 -109.5 -50t-42.5 -150q0 -109 33 -156t100 -47q51 0 90 20v133h-85l-12 91h220v-280q-45 -28 -99.5 -43t-113.5 -15q-130 0 -198 75.5t-68 221.5q0 92 37 158.5t100.5 101t140.5 34.5q113 0 198 -68z" />
    <glyph glyph-name="gbreve.sc" horiz-adv-x="575" 
d="M519 510l-69 -70q-30 23 -58 33.5t-64 10.5q-67 0 -109.5 -50t-42.5 -150q0 -109 33 -156t100 -47q51 0 90 20v133h-85l-12 91h220v-280q-45 -28 -99.5 -43t-113.5 -15q-130 0 -198 75.5t-68 221.5q0 92 37 158.5t100.5 101t140.5 34.5q113 0 198 -68zM201.5 710
q-43.5 43 -49.5 112l76 14q19 -77 86 -77q34 0 56.5 20t32.5 57l75 -14q-6 -69 -50.5 -112t-113.5 -43t-112.5 43z" />
    <glyph glyph-name="gcircumflex.sc" horiz-adv-x="575" 
d="M519 510l-69 -70q-30 23 -58 33.5t-64 10.5q-67 0 -109.5 -50t-42.5 -150q0 -109 33 -156t100 -47q51 0 90 20v133h-85l-12 91h220v-280q-45 -28 -99.5 -43t-113.5 -15q-130 0 -198 75.5t-68 221.5q0 92 37 158.5t100.5 101t140.5 34.5q113 0 198 -68zM275 839h80
l139 -126l-49 -56l-130 88l-130 -88l-49 56z" />
    <glyph glyph-name="gcommaaccent.sc" horiz-adv-x="575" 
d="M519 510l-69 -70q-30 23 -58 33.5t-64 10.5q-67 0 -109.5 -50t-42.5 -150q0 -109 33 -156t100 -47q51 0 90 20v133h-85l-12 91h220v-280q-45 -28 -99.5 -43t-113.5 -15q-130 0 -198 75.5t-68 221.5q0 92 37 158.5t100.5 101t140.5 34.5q113 0 198 -68zM360 -91.5
q20 -19.5 20 -48.5q0 -16 -5.5 -32.5t-21.5 -48.5l-44 -91h-67l28 116q-29 22 -29 56q0 28 20.5 48t49.5 20t49 -19.5z" />
    <glyph glyph-name="gdotaccent.sc" horiz-adv-x="575" 
d="M519 510l-69 -70q-30 23 -58 33.5t-64 10.5q-67 0 -109.5 -50t-42.5 -150q0 -109 33 -156t100 -47q51 0 90 20v133h-85l-12 91h220v-280q-45 -28 -99.5 -43t-113.5 -15q-130 0 -198 75.5t-68 221.5q0 92 37 158.5t100.5 101t140.5 34.5q113 0 198 -68zM372.5 804.5
q22.5 -22.5 22.5 -55.5t-22.5 -55t-58.5 -22q-35 0 -57.5 22t-22.5 55t22.5 55.5t57.5 22.5q36 0 58.5 -22.5z" />
    <glyph glyph-name="h.sc" horiz-adv-x="615" 
d="M405 0v246h-197v-246h-127v566h127v-220h197v220h130v-566h-130z" />
    <glyph glyph-name="hbar.sc" horiz-adv-x="590" 
d="M528 420v-420h-129v246h-197v-246h-128v420h-51v69h51v78h128v-78h197v78h129v-78h39v-69h-39zM202 420v-74h197v74h-197z" />
    <glyph glyph-name="hcircumflex.sc" horiz-adv-x="615" 
d="M405 0v246h-197v-246h-127v566h127v-220h197v220h130v-566h-130zM267 839h80l139 -126l-49 -56l-130 88l-130 -88l-49 56z" />
    <glyph glyph-name="i.sc" horiz-adv-x="290" 
d="M81 0v566h128v-566h-128z" />
    <glyph glyph-name="dotlessi.sc" horiz-adv-x="290" 
d="M81 0v566h128v-566h-128z" />
    <glyph glyph-name="iacute.sc" horiz-adv-x="290" 
d="M81 0v566h128v-566h-128zM48 660l-37 66l210 124l52 -100z" />
    <glyph glyph-name="ibreve.sc" horiz-adv-x="290" 
d="M81 0v566h128v-566h-128zM31.5 710q-43.5 43 -49.5 112l76 14q19 -77 86 -77q34 0 56.5 20t32.5 57l75 -14q-6 -69 -50.5 -112t-113.5 -43t-112.5 43z" />
    <glyph glyph-name="icircumflex.sc" horiz-adv-x="290" 
d="M81 0v566h128v-566h-128zM106 839h80l139 -126l-49 -56l-130 88l-130 -88l-49 56z" />
    <glyph glyph-name="idieresis.sc" horiz-adv-x="290" 
d="M81 0v566h128v-566h-128zM84 795q20 -20 20 -49t-20 -49t-50 -20q-29 0 -49.5 20t-20.5 49t20.5 49t49.5 20q30 0 50 -20zM306 795q20 -20 20 -49t-20 -49t-50 -20q-29 0 -49.5 20t-20.5 49t20.5 49t49.5 20q30 0 50 -20z" />
    <glyph glyph-name="i.sc.loclTRK" horiz-adv-x="290" 
d="M81 0v566h128v-566h-128zM202.5 804.5q22.5 -22.5 22.5 -55.5t-22.5 -55t-58.5 -22q-35 0 -57.5 22t-22.5 55t22.5 55.5t57.5 22.5q36 0 58.5 -22.5z" />
    <glyph glyph-name="igrave.sc" horiz-adv-x="290" 
d="M81 0v566h128v-566h-128zM243 660l-225 90l52 100l210 -124z" />
    <glyph glyph-name="ij.sc" horiz-adv-x="581" 
d="M81 0v566h128v-566h-128zM455 -60q-48 -49 -136 -76l-33 91q55 21 72.5 50.5t17.5 84.5v476h127v-480q0 -97 -48 -146z" />
    <glyph glyph-name="imacron.sc" horiz-adv-x="290" 
d="M81 0v566h128v-566h-128zM0 782h291v-91h-291v91z" />
    <glyph glyph-name="iogonek.sc" horiz-adv-x="290" 
d="M209 0h-13q-69 -28 -95 -54t-26 -53q0 -47 55 -47q27 0 61 7l-10 -85q-37 -7 -67 -7q-61 0 -99 30t-38 79q0 86 104 137v559h128v-566z" />
    <glyph glyph-name="itilde.sc" horiz-adv-x="290" 
d="M81 0v566h128v-566h-128zM166.5 682.5q-17.5 7.5 -36.5 20.5q-13 9 -22 13.5t-19 4.5q-17 0 -28.5 -10.5t-24.5 -34.5l-69 34q20 46 50.5 75t70.5 29q22 0 36.5 -6.5t36.5 -20.5q13 -10 22.5 -14.5t19.5 -4.5q15 0 27 10t26 33l68 -33q-20 -48 -50 -75.5t-67 -27.5
q-23 0 -40.5 7.5z" />
    <glyph glyph-name="j.sc" horiz-adv-x="291" 
d="M166 -60q-48 -49 -136 -76l-33 91q55 21 72.5 50.5t17.5 84.5v476h127v-480q0 -97 -48 -146z" />
    <glyph glyph-name="jcircumflex.sc" horiz-adv-x="291" 
d="M166 -60q-48 -49 -136 -76l-33 91q55 21 72.5 50.5t17.5 84.5v476h127v-480q0 -97 -48 -146zM108 839h80l139 -126l-49 -56l-130 88l-130 -88l-49 56z" />
    <glyph glyph-name="k.sc" horiz-adv-x="557" 
d="M81 0v566h127v-566h-127zM564 0h-149l-202 303l199 263h136l-199 -254z" />
    <glyph glyph-name="kcommaaccent.sc" horiz-adv-x="557" 
d="M81 0v566h127v-566h-127zM564 0h-149l-202 303l199 263h136l-199 -254zM348 -91.5q20 -19.5 20 -48.5q0 -16 -5.5 -32.5t-21.5 -48.5l-44 -91h-67l28 116q-29 22 -29 56q0 28 20.5 48t49.5 20t49 -19.5z" />
    <glyph glyph-name="kgreenlandic.sc" horiz-adv-x="557" 
d="M81 0v566h127v-566h-127zM564 0h-149l-202 303l199 263h136l-199 -254z" />
    <glyph glyph-name="l.sc" horiz-adv-x="462" 
d="M446 102l-14 -102h-351v566h127v-464h238z" />
    <glyph glyph-name="lacute.sc" horiz-adv-x="462" 
d="M446 102l-14 -102h-351v566h127v-464h238zM47 660l-37 66l210 124l52 -100z" />
    <glyph glyph-name="lcaron.sc" horiz-adv-x="462" 
d="M446 102l-14 -102h-351v566h127v-464h238zM336 365l-69 8l13 205l102 -12z" />
    <glyph glyph-name="lcommaaccent.sc" horiz-adv-x="462" 
d="M446 102l-14 -102h-351v566h127v-464h238zM307 -91.5q20 -19.5 20 -48.5q0 -16 -5.5 -32.5t-21.5 -48.5l-44 -91h-67l28 116q-29 22 -29 56q0 28 20.5 48t49.5 20t49 -19.5z" />
    <glyph glyph-name="ldot.sc" horiz-adv-x="467" 
d="M446 102l-14 -102h-351v566h127v-464h238zM430.054 371.849q20.9717 -20.9717 20.9717 -51.7295q0 -30.7588 -20.9717 -51.2637q-20.9717 -20.5059 -54.5264 -20.5059q-32.6221 0 -53.5938 20.5059q-20.9717 20.5049 -20.9717 51.2637q0 30.7578 20.9717 51.7295
t53.5938 20.9717q33.5547 0 54.5264 -20.9717z" />
    <glyph glyph-name="lslash.sc" horiz-adv-x="481" 
d="M451 0h-352v184l-42 -26l-42 68l84 53v287h128v-208l124 76l42 -68l-166 -103v-161h238z" />
    <glyph glyph-name="m.sc" horiz-adv-x="713" 
d="M531 0l-13 226q-6 114 -6 168q0 24 2 76l-103 -410h-122l-106 408q3 -69 3 -123q0 -58 -3 -121l-13 -224h-124l47 567h161l98 -394l95 394h163l45 -567h-124z" />
    <glyph glyph-name="n.sc" horiz-adv-x="612" 
d="M368 0l-192 450q2 -12 7.5 -54t9 -88t3.5 -94v-214h-115v566h160l195 -451q-19 105 -19 213v238h115v-566h-164z" />
    <glyph glyph-name="nacute.sc" horiz-adv-x="612" 
d="M368 0l-192 450q2 -12 7.5 -54t9 -88t3.5 -94v-214h-115v566h160l195 -451q-19 105 -19 213v238h115v-566h-164zM215 660l-37 66l210 124l52 -100z" />
    <glyph glyph-name="napostrophe.sc" horiz-adv-x="612" 
d="M368 0l-192 450q2 -12 7.5 -54t9 -88t3.5 -94v-214h-115v566h160l195 -451q-19 105 -19 213v238h115v-566h-164z" />
    <glyph glyph-name="ncaron.sc" horiz-adv-x="612" 
d="M368 0l-192 450q2 -12 7.5 -54t9 -88t3.5 -94v-214h-115v566h160l195 -451q-19 105 -19 213v238h115v-566h-164zM353 649h-81l-139 126l49 56l130 -89l131 89l48 -56z" />
    <glyph glyph-name="ncommaaccent.sc" horiz-adv-x="612" 
d="M368 0l-192 450q2 -12 7.5 -54t9 -88t3.5 -94v-214h-115v566h160l195 -451q-19 105 -19 213v238h115v-566h-164zM357 -91.5q20 -19.5 20 -48.5q0 -16 -5.5 -32.5t-21.5 -48.5l-44 -91h-67l28 116q-29 22 -29 56q0 28 20.5 48t49.5 20t49 -19.5z" />
    <glyph glyph-name="eng.sc" horiz-adv-x="612" 
d="M532 0q0 -82 -46.5 -130t-146.5 -87l-34 79q43 19 67 36t36 41t12 61h-52l-192 450q2 -12 7.5 -54t9 -88t3.5 -94v-214h-115v566h160l195 -451q-19 105 -19 213v238h115v-530v-36z" />
    <glyph glyph-name="ntilde.sc" horiz-adv-x="612" 
d="M368 0l-192 450q2 -12 7.5 -54t9 -88t3.5 -94v-214h-115v566h160l195 -451q-19 105 -19 213v238h115v-566h-164zM332.5 682.5q-17.5 7.5 -36.5 20.5q-13 9 -22 13.5t-19 4.5q-17 0 -28.5 -10.5t-24.5 -34.5l-69 34q20 46 50.5 75t70.5 29q22 0 36.5 -6.5t36.5 -20.5
q13 -10 22.5 -14.5t19.5 -4.5q15 0 27 10t26 33l68 -33q-20 -48 -50 -75.5t-67 -27.5q-23 0 -40.5 7.5z" />
    <glyph glyph-name="o.sc" horiz-adv-x="617" 
d="M503.5 500.5q70.5 -77.5 70.5 -216.5t-71 -218t-194 -79q-124 0 -195 78t-71 219q0 90 32.5 156.5t92.5 102t141 35.5q124 0 194.5 -77.5zM210 436q-34 -48 -34 -152q0 -106 34 -154.5t99 -48.5q66 0 99 48t33 155q0 104 -33.5 152t-98.5 48t-99 -48z" />
    <glyph glyph-name="oacute.sc" horiz-adv-x="617" 
d="M503.5 500.5q70.5 -77.5 70.5 -216.5t-71 -218t-194 -79q-124 0 -195 78t-71 219q0 90 32.5 156.5t92.5 102t141 35.5q124 0 194.5 -77.5zM210 436q-34 -48 -34 -152q0 -106 34 -154.5t99 -48.5q66 0 99 48t33 155q0 104 -33.5 152t-98.5 48t-99 -48zM213 660l-37 66
l210 124l52 -100z" />
    <glyph glyph-name="obreve.sc" horiz-adv-x="617" 
d="M503.5 500.5q70.5 -77.5 70.5 -216.5t-71 -218t-194 -79q-124 0 -195 78t-71 219q0 90 32.5 156.5t92.5 102t141 35.5q124 0 194.5 -77.5zM210 436q-34 -48 -34 -152q0 -106 34 -154.5t99 -48.5q66 0 99 48t33 155q0 104 -33.5 152t-98.5 48t-99 -48zM196.5 710
q-43.5 43 -49.5 112l76 14q19 -77 86 -77q34 0 56.5 20t32.5 57l75 -14q-6 -69 -50.5 -112t-113.5 -43t-112.5 43z" />
    <glyph glyph-name="ocircumflex.sc" horiz-adv-x="617" 
d="M503.5 500.5q70.5 -77.5 70.5 -216.5t-71 -218t-194 -79q-124 0 -195 78t-71 219q0 90 32.5 156.5t92.5 102t141 35.5q124 0 194.5 -77.5zM210 436q-34 -48 -34 -152q0 -106 34 -154.5t99 -48.5q66 0 99 48t33 155q0 104 -33.5 152t-98.5 48t-99 -48zM270 839h80
l139 -126l-49 -56l-130 88l-130 -88l-49 56z" />
    <glyph glyph-name="odieresis.sc" horiz-adv-x="617" 
d="M503.5 500.5q70.5 -77.5 70.5 -216.5t-71 -218t-194 -79q-124 0 -195 78t-71 219q0 90 32.5 156.5t92.5 102t141 35.5q124 0 194.5 -77.5zM210 436q-34 -48 -34 -152q0 -106 34 -154.5t99 -48.5q66 0 99 48t33 155q0 104 -33.5 152t-98.5 48t-99 -48zM249 795
q20 -20 20 -49t-20 -49t-50 -20q-29 0 -49.5 20t-20.5 49t20.5 49t49.5 20q30 0 50 -20zM471 795q20 -20 20 -49t-20 -49t-50 -20q-29 0 -49.5 20t-20.5 49t20.5 49t49.5 20q30 0 50 -20z" />
    <glyph glyph-name="ograve.sc" horiz-adv-x="617" 
d="M503.5 500.5q70.5 -77.5 70.5 -216.5t-71 -218t-194 -79q-124 0 -195 78t-71 219q0 90 32.5 156.5t92.5 102t141 35.5q124 0 194.5 -77.5zM210 436q-34 -48 -34 -152q0 -106 34 -154.5t99 -48.5q66 0 99 48t33 155q0 104 -33.5 152t-98.5 48t-99 -48zM408 660l-225 90
l52 100l210 -124z" />
    <glyph glyph-name="ohungarumlaut.sc" horiz-adv-x="617" 
d="M503.5 500.5q70.5 -77.5 70.5 -216.5t-71 -218t-194 -79q-124 0 -195 78t-71 219q0 90 32.5 156.5t92.5 102t141 35.5q124 0 194.5 -77.5zM210 436q-34 -48 -34 -152q0 -106 34 -154.5t99 -48.5q66 0 99 48t33 155q0 104 -33.5 152t-98.5 48t-99 -48zM258 664l-72 30
l83 184l94 -47zM413 659l-71 33l92 186l93 -48z" />
    <glyph glyph-name="omacron.sc" horiz-adv-x="617" 
d="M503.5 500.5q70.5 -77.5 70.5 -216.5t-71 -218t-194 -79q-124 0 -195 78t-71 219q0 90 32.5 156.5t92.5 102t141 35.5q124 0 194.5 -77.5zM210 436q-34 -48 -34 -152q0 -106 34 -154.5t99 -48.5q66 0 99 48t33 155q0 104 -33.5 152t-98.5 48t-99 -48zM165 782h291v-91
h-291v91z" />
    <glyph glyph-name="oslash.sc" horiz-adv-x="617" 
d="M541.5 445.5q32.5 -66.5 32.5 -161.5q0 -139 -71 -218t-194 -79q-24 0 -47 3l-32 -100l-96 26l34 105q-60 35 -92.5 102t-32.5 161q0 139 71 216.5t195 77.5q17 0 45 -2l33 102l97 -26l-36 -106q61 -34 93.5 -100.5zM208 437q-34 -47 -34 -153q0 -128 45 -173l119 371
q-18 2 -29 2q-67 0 -101 -47zM409.5 129q33.5 48 33.5 155q0 68 -11 109.5t-33 62.5l-119 -373q18 -2 29 -2q67 0 100.5 48z" />
    <glyph glyph-name="oslashacute.sc" horiz-adv-x="617" 
d="M541.5 445.5q32.5 -66.5 32.5 -161.5q0 -139 -71 -218t-194 -79q-24 0 -47 3l-32 -100l-96 26l34 105q-60 35 -92.5 102t-32.5 161q0 139 71 216.5t195 77.5q17 0 45 -2l33 102l97 -26l-36 -106q61 -34 93.5 -100.5zM208 437q-34 -47 -34 -153q0 -128 45 -173l119 371
q-18 2 -29 2q-67 0 -101 -47zM409.5 129q33.5 48 33.5 155q0 68 -11 109.5t-33 62.5l-119 -373q18 -2 29 -2q67 0 100.5 48zM212 660l-37 66l210 124l52 -100z" />
    <glyph glyph-name="otilde.sc" horiz-adv-x="617" 
d="M503.5 500.5q70.5 -77.5 70.5 -216.5t-71 -218t-194 -79q-124 0 -195 78t-71 219q0 90 32.5 156.5t92.5 102t141 35.5q124 0 194.5 -77.5zM210 436q-34 -48 -34 -152q0 -106 34 -154.5t99 -48.5q66 0 99 48t33 155q0 104 -33.5 152t-98.5 48t-99 -48zM331.5 682.5
q-17.5 7.5 -36.5 20.5q-13 9 -22 13.5t-19 4.5q-17 0 -28.5 -10.5t-24.5 -34.5l-69 34q20 46 50.5 75t70.5 29q22 0 36.5 -6.5t36.5 -20.5q13 -10 22.5 -14.5t19.5 -4.5q15 0 27 10t26 33l68 -33q-20 -48 -50 -75.5t-67 -27.5q-23 0 -40.5 7.5z" />
    <glyph glyph-name="oe.sc" horiz-adv-x="801" 
d="M374 0q-33 -13 -75 -13q-77 0 -135 35t-89.5 102t-31.5 160q0 92 31.5 159t89.5 103t135 36q42 0 79 -14h377l-13 -92h-244q45 -58 57 -142h159v-91h-159q-9 -89 -61 -150h262v-93h-382zM209 130q33 -49 91 -49q124 0 124 203t-124 203t-124 -203q0 -105 33 -154z" />
    <glyph glyph-name="p.sc" horiz-adv-x="538" 
d="M447.5 520q64.5 -46 64.5 -137q0 -96 -64.5 -144t-171.5 -48h-68v-191h-127v566h185q117 0 181.5 -46zM351 306.5q29 22.5 29 75.5q0 93 -116 93h-56v-191h58q56 0 85 22.5z" />
    <glyph glyph-name="thorn.sc" horiz-adv-x="538" 
d="M447.5 431.5q64.5 -46.5 64.5 -137.5q0 -95 -64.5 -143t-171.5 -48h-68v-103h-127v566h127v-88h58q117 0 181.5 -46.5zM351 217.5q29 22.5 29 76.5q0 92 -116 92h-56v-191h58q56 0 85 22.5z" />
    <glyph glyph-name="q.sc" horiz-adv-x="614" 
d="M530.5 23q41.5 -13 78.5 -38l-79 -100q-51 51 -101.5 77.5t-126.5 26.5q-79 0 -137 34.5t-90 101t-32 159.5q0 90 32.5 156.5t92.5 102t141 35.5q124 0 194.5 -77.5t70.5 -216.5q0 -177 -139 -248q54 0 95.5 -13zM210 129.5q34 -48.5 99 -48.5q66 0 99 48t33 155
q0 104 -33.5 152t-98.5 48t-99 -48t-34 -152q0 -106 34 -154.5z" />
    <glyph glyph-name="r.sc" horiz-adv-x="556" 
d="M208 220v-220h-127v566h186q121 0 181.5 -42t60.5 -129q0 -55 -28.5 -91t-89.5 -61l155 -243h-145l-128 220h-65zM274 309q52 0 78 20.5t26 65.5q0 42 -28 61.5t-85 19.5h-57v-167h66z" />
    <glyph glyph-name="racute.sc" horiz-adv-x="556" 
d="M208 220v-220h-127v566h186q121 0 181.5 -42t60.5 -129q0 -55 -28.5 -91t-89.5 -61l155 -243h-145l-128 220h-65zM274 309q52 0 78 20.5t26 65.5q0 42 -28 61.5t-85 19.5h-57v-167h66zM185 660l-37 66l210 124l52 -100z" />
    <glyph glyph-name="rcaron.sc" horiz-adv-x="556" 
d="M208 220v-220h-127v566h186q121 0 181.5 -42t60.5 -129q0 -55 -28.5 -91t-89.5 -61l155 -243h-145l-128 220h-65zM274 309q52 0 78 20.5t26 65.5q0 42 -28 61.5t-85 19.5h-57v-167h66zM323 649h-81l-139 126l49 56l130 -89l131 89l48 -56z" />
    <glyph glyph-name="rcommaaccent.sc" horiz-adv-x="556" 
d="M208 220v-220h-127v566h186q121 0 181.5 -42t60.5 -129q0 -55 -28.5 -91t-89.5 -61l155 -243h-145l-128 220h-65zM274 309q52 0 78 20.5t26 65.5q0 42 -28 61.5t-85 19.5h-57v-167h66zM337 -91.5q20 -19.5 20 -48.5q0 -16 -5.5 -32.5t-21.5 -48.5l-44 -91h-67l28 116
q-29 22 -29 56q0 28 20.5 48t49.5 20t49 -19.5z" />
    <glyph glyph-name="s.sc" horiz-adv-x="505" 
d="M372 560q49 -18 89 -54l-63 -70q-60 48 -130 48q-42 0 -66 -15t-24 -44q0 -19 9.5 -31t34 -23t74.5 -26q89 -27 133 -67.5t44 -113.5q0 -52 -27.5 -92t-80 -62.5t-123.5 -22.5q-72 0 -129 21.5t-96 58.5l65 73q67 -58 155 -58q47 0 75 19.5t28 52.5q0 22 -9.5 36.5
t-33.5 26.5t-69 25q-99 29 -140.5 69.5t-41.5 104.5q0 75 60.5 118.5t152.5 43.5q64 0 113 -18z" />
    <glyph glyph-name="sacute.sc" horiz-adv-x="505" 
d="M372 560q49 -18 89 -54l-63 -70q-60 48 -130 48q-42 0 -66 -15t-24 -44q0 -19 9.5 -31t34 -23t74.5 -26q89 -27 133 -67.5t44 -113.5q0 -52 -27.5 -92t-80 -62.5t-123.5 -22.5q-72 0 -129 21.5t-96 58.5l65 73q67 -58 155 -58q47 0 75 19.5t28 52.5q0 22 -9.5 36.5
t-33.5 26.5t-69 25q-99 29 -140.5 69.5t-41.5 104.5q0 75 60.5 118.5t152.5 43.5q64 0 113 -18zM162 660l-37 66l210 124l52 -100z" />
    <glyph glyph-name="scaron.sc" horiz-adv-x="505" 
d="M372 560q49 -18 89 -54l-63 -70q-60 48 -130 48q-42 0 -66 -15t-24 -44q0 -19 9.5 -31t34 -23t74.5 -26q89 -27 133 -67.5t44 -113.5q0 -52 -27.5 -92t-80 -62.5t-123.5 -22.5q-72 0 -129 21.5t-96 58.5l65 73q67 -58 155 -58q47 0 75 19.5t28 52.5q0 22 -9.5 36.5
t-33.5 26.5t-69 25q-99 29 -140.5 69.5t-41.5 104.5q0 75 60.5 118.5t152.5 43.5q64 0 113 -18zM300 649h-81l-139 126l49 56l130 -89l131 89l48 -56z" />
    <glyph glyph-name="scedilla.sc" horiz-adv-x="505" 
d="M422 45q-51 -47 -141 -56v-40q50 -5 74.5 -30t24.5 -63q0 -50 -38 -79t-100 -29q-31 0 -58 7.5t-44 19.5l31 64q29 -17 63 -17q49 0 49 35q0 19 -21.5 28t-69.5 9l11 94q-58 6 -105.5 27t-80.5 52l65 73q67 -58 155 -58q47 0 75 19.5t28 52.5q0 22 -9.5 36.5t-33.5 26.5
t-69 25q-99 29 -140.5 69.5t-41.5 104.5q0 75 60.5 118.5t152.5 43.5q64 0 113 -18t89 -54l-63 -70q-60 48 -130 48q-42 0 -66 -15t-24 -44q0 -19 9.5 -31t34 -23t74.5 -26q89 -27 133 -67.5t44 -113.5q0 -72 -51 -119z" />
    <glyph glyph-name="scircumflex.sc" horiz-adv-x="505" 
d="M372 560q49 -18 89 -54l-63 -70q-60 48 -130 48q-42 0 -66 -15t-24 -44q0 -19 9.5 -31t34 -23t74.5 -26q89 -27 133 -67.5t44 -113.5q0 -52 -27.5 -92t-80 -62.5t-123.5 -22.5q-72 0 -129 21.5t-96 58.5l65 73q67 -58 155 -58q47 0 75 19.5t28 52.5q0 22 -9.5 36.5
t-33.5 26.5t-69 25q-99 29 -140.5 69.5t-41.5 104.5q0 75 60.5 118.5t152.5 43.5q64 0 113 -18zM219 839h80l139 -126l-49 -56l-130 88l-130 -88l-49 56z" />
    <glyph glyph-name="scommaaccent.sc" horiz-adv-x="505" 
d="M372 560q49 -18 89 -54l-63 -70q-60 48 -130 48q-42 0 -66 -15t-24 -44q0 -19 9.5 -31t34 -23t74.5 -26q89 -27 133 -67.5t44 -113.5q0 -52 -27.5 -92t-80 -62.5t-123.5 -22.5q-72 0 -129 21.5t-96 58.5l65 73q67 -58 155 -58q47 0 75 19.5t28 52.5q0 22 -9.5 36.5
t-33.5 26.5t-69 25q-99 29 -140.5 69.5t-41.5 104.5q0 75 60.5 118.5t152.5 43.5q64 0 113 -18zM305 -91.5q20 -19.5 20 -48.5q0 -16 -5.5 -32.5t-21.5 -48.5l-44 -91h-67l28 116q-29 22 -29 56q0 28 20.5 48t49.5 20t49 -19.5z" />
    <glyph glyph-name="germandbls.sc" horiz-adv-x="1009" 
d="M372 560q49 -18 89 -54l-63 -70q-60 48 -130 48q-42 0 -66 -15t-24 -44q0 -19 9.5 -31t34 -23t74.5 -26q89 -27 133 -67.5t44 -113.5q0 -52 -27.5 -92t-80 -62.5t-123.5 -22.5q-72 0 -129 21.5t-96 58.5l65 73q67 -58 155 -58q47 0 75 19.5t28 52.5q0 22 -9.5 36.5
t-33.5 26.5t-69 25q-99 29 -140.5 69.5t-41.5 104.5q0 75 60.5 118.5t152.5 43.5q64 0 113 -18zM876 560q49 -18 89 -54l-63 -70q-60 48 -130 48q-42 0 -66 -15t-24 -44q0 -19 9.5 -31t34 -23t74.5 -26q89 -27 133 -67.5t44 -113.5q0 -52 -27.5 -92t-80 -62.5t-123.5 -22.5
q-72 0 -129 21.5t-96 58.5l65 73q67 -58 155 -58q47 0 75 19.5t28 52.5q0 22 -9.5 36.5t-33.5 26.5t-69 25q-99 29 -140.5 69.5t-41.5 104.5q0 75 60.5 118.5t152.5 43.5q64 0 113 -18z" />
    <glyph glyph-name="t.sc" horiz-adv-x="468" 
d="M298 468v-468h-127v468h-159v99h451l-13 -99h-152z" />
    <glyph glyph-name="tbar.sc" horiz-adv-x="468" 
d="M298 348h109v-78h-109v-270h-127v270h-103v78h103v120h-159v99h451l-13 -99h-152v-120z" />
    <glyph glyph-name="tcaron.sc" horiz-adv-x="468" 
d="M298 468v-468h-127v468h-159v99h451l-13 -99h-152zM270 650h-81l-139 126l49 56l130 -89l131 89l48 -56z" />
    <glyph glyph-name="tcedilla.sc" horiz-adv-x="468" 
d="M299 16v-68q50 -5 75 -30t25 -63q0 -50 -39 -79t-101 -29q-30 0 -56 7.5t-44 20.5l31 63q17 -9 30.5 -13t29.5 -4q24 0 38 8.5t14 26.5q0 19 -21.5 28.5t-69.5 9.5l13 106h-53v468h-159v99h451l-13 -99h-152z" />
    <glyph glyph-name="uni021B.sc" horiz-adv-x="468" 
d="M298 468v-468h-127v468h-159v99h451l-13 -99h-152zM280 -91.5q20 -19.5 20 -48.5q0 -16 -5.5 -32.5t-21.5 -48.5l-44 -91h-67l28 116q-29 22 -29 56q0 28 20.5 48t49.5 20t49 -19.5z" />
    <glyph glyph-name="u.sc" horiz-adv-x="597" 
d="M467.5 42.5q-59.5 -55.5 -169.5 -55.5t-168.5 54.5t-58.5 146.5v379h127v-374q0 -56 24.5 -83.5t75.5 -27.5q52 0 76.5 27.5t24.5 83.5v374h128v-379q0 -90 -59.5 -145.5z" />
    <glyph glyph-name="uacute.sc" horiz-adv-x="597" 
d="M467.5 42.5q-59.5 -55.5 -169.5 -55.5t-168.5 54.5t-58.5 146.5v379h127v-374q0 -56 24.5 -83.5t75.5 -27.5q52 0 76.5 27.5t24.5 83.5v374h128v-379q0 -90 -59.5 -145.5zM201 661l-37 66l210 124l52 -100z" />
    <glyph glyph-name="ubreve.sc" horiz-adv-x="597" 
d="M467.5 42.5q-59.5 -55.5 -169.5 -55.5t-168.5 54.5t-58.5 146.5v379h127v-374q0 -56 24.5 -83.5t75.5 -27.5q52 0 76.5 27.5t24.5 83.5v374h128v-379q0 -90 -59.5 -145.5zM184.5 711q-43.5 43 -49.5 112l76 14q19 -77 86 -77q34 0 56.5 20t32.5 57l75 -14
q-6 -69 -50.5 -112t-113.5 -43t-112.5 43z" />
    <glyph glyph-name="ucircumflex.sc" horiz-adv-x="597" 
d="M467.5 42.5q-59.5 -55.5 -169.5 -55.5t-168.5 54.5t-58.5 146.5v379h127v-374q0 -56 24.5 -83.5t75.5 -27.5q52 0 76.5 27.5t24.5 83.5v374h128v-379q0 -90 -59.5 -145.5zM259 840h80l139 -126l-49 -56l-130 88l-130 -88l-49 56z" />
    <glyph glyph-name="udieresis.sc" horiz-adv-x="597" 
d="M467.5 42.5q-59.5 -55.5 -169.5 -55.5t-168.5 54.5t-58.5 146.5v379h127v-374q0 -56 24.5 -83.5t75.5 -27.5q52 0 76.5 27.5t24.5 83.5v374h128v-379q0 -90 -59.5 -145.5zM237 796q20 -20 20 -49t-20 -49t-50 -20q-29 0 -49.5 20t-20.5 49t20.5 49t49.5 20q30 0 50 -20z
M459 796q20 -20 20 -49t-20 -49t-50 -20q-29 0 -49.5 20t-20.5 49t20.5 49t49.5 20q30 0 50 -20z" />
    <glyph glyph-name="ugrave.sc" horiz-adv-x="597" 
d="M467.5 42.5q-59.5 -55.5 -169.5 -55.5t-168.5 54.5t-58.5 146.5v379h127v-374q0 -56 24.5 -83.5t75.5 -27.5q52 0 76.5 27.5t24.5 83.5v374h128v-379q0 -90 -59.5 -145.5zM396 661l-225 90l52 100l210 -124z" />
    <glyph glyph-name="uhungarumlaut.sc" horiz-adv-x="597" 
d="M467.5 42.5q-59.5 -55.5 -169.5 -55.5t-168.5 54.5t-58.5 146.5v379h127v-374q0 -56 24.5 -83.5t75.5 -27.5q52 0 76.5 27.5t24.5 83.5v374h128v-379q0 -90 -59.5 -145.5zM247 665l-72 30l83 184l94 -47zM402 660l-71 33l92 186l93 -48z" />
    <glyph glyph-name="umacron.sc" horiz-adv-x="597" 
d="M467.5 42.5q-59.5 -55.5 -169.5 -55.5t-168.5 54.5t-58.5 146.5v379h127v-374q0 -56 24.5 -83.5t75.5 -27.5q52 0 76.5 27.5t24.5 83.5v374h128v-379q0 -90 -59.5 -145.5zM153 783h291v-91h-291v91z" />
    <glyph glyph-name="uogonek.sc" horiz-adv-x="597" 
d="M527 188q0 -68 -35 -118t-102 -71q-68 -27 -93.5 -53t-25.5 -54q0 -46 55 -46q27 0 61 7l-10 -85q-34 -8 -67 -8q-61 0 -99 30.5t-38 79.5q0 76 93 118q-95 8 -145 61.5t-50 138.5v379h127v-374q0 -56 24.5 -83.5t75.5 -27.5q52 0 76.5 27.5t24.5 83.5v374h128v-379z" />
    <glyph glyph-name="uring.sc" horiz-adv-x="597" 
d="M467.5 42.5q-59.5 -55.5 -169.5 -55.5t-168.5 54.5t-58.5 146.5v379h127v-374q0 -56 24.5 -83.5t75.5 -27.5q52 0 76.5 27.5t24.5 83.5v374h128v-379q0 -90 -59.5 -145.5zM390.5 849.5q35.5 -34.5 35.5 -84.5q0 -51 -35 -85.5t-92 -34.5t-92.5 34.5t-35.5 85.5
q0 50 35.5 84.5t92.5 34.5q56 0 91.5 -34.5zM263 803.5q-13 -13.5 -13 -38.5t13 -39t36 -14q22 0 35 14t13 39t-13 38.5t-35 13.5q-23 0 -36 -13.5z" />
    <glyph glyph-name="utilde.sc" horiz-adv-x="597" 
d="M467.5 42.5q-59.5 -55.5 -169.5 -55.5t-168.5 54.5t-58.5 146.5v379h127v-374q0 -56 24.5 -83.5t75.5 -27.5q52 0 76.5 27.5t24.5 83.5v374h128v-379q0 -90 -59.5 -145.5zM319.5 683.5q-17.5 7.5 -36.5 20.5q-13 9 -22 13.5t-19 4.5q-17 0 -28.5 -10.5t-24.5 -34.5
l-69 34q20 46 50.5 75t70.5 29q22 0 36.5 -6.5t36.5 -20.5q13 -10 22.5 -14.5t19.5 -4.5q15 0 27 10t26 33l68 -33q-20 -48 -50 -75.5t-67 -27.5q-23 0 -40.5 7.5z" />
    <glyph glyph-name="v.sc" horiz-adv-x="496" 
d="M173 0l-178 567h135l124 -465l117 465h130l-173 -567h-155z" />
    <glyph glyph-name="w.sc" horiz-adv-x="739" 
d="M451 0l-83 434l-87 -434h-161l-103 567h127l67 -470l92 469h134l87 -470l77 471h121l-105 -567h-166z" />
    <glyph glyph-name="wacute.sc" horiz-adv-x="739" 
d="M451 0l-83 434l-87 -434h-161l-103 567h127l67 -470l92 469h134l87 -470l77 471h121l-105 -567h-166zM273 660l-37 66l210 124l52 -100z" />
    <glyph glyph-name="wcircumflex.sc" horiz-adv-x="739" 
d="M451 0l-83 434l-87 -434h-161l-103 567h127l67 -470l92 469h134l87 -470l77 471h121l-105 -567h-166zM330 839h80l139 -126l-49 -56l-130 88l-130 -88l-49 56z" />
    <glyph glyph-name="wdieresis.sc" horiz-adv-x="739" 
d="M451 0l-83 434l-87 -434h-161l-103 567h127l67 -470l92 469h134l87 -470l77 471h121l-105 -567h-166zM309 795q20 -20 20 -49t-20 -49t-50 -20q-29 0 -49.5 20t-20.5 49t20.5 49t49.5 20q30 0 50 -20zM531 795q20 -20 20 -49t-20 -49t-50 -20q-29 0 -49.5 20t-20.5 49
t20.5 49t49.5 20q30 0 50 -20z" />
    <glyph glyph-name="wgrave.sc" horiz-adv-x="739" 
d="M451 0l-83 434l-87 -434h-161l-103 567h127l67 -470l92 469h134l87 -470l77 471h121l-105 -567h-166zM468 660l-225 90l52 100l210 -124z" />
    <glyph glyph-name="x.sc" horiz-adv-x="497" 
d="M246 219l-110 -219h-136l172 302l-158 264h140l94 -182l98 182h136l-161 -260l176 -306h-140z" />
    <glyph glyph-name="y.sc" horiz-adv-x="510" 
d="M319 0h-129v213l-192 353h140l120 -254l118 254h136l-193 -352v-214z" />
    <glyph glyph-name="yacute.sc" horiz-adv-x="510" 
d="M319 0h-129v213l-192 353h140l120 -254l118 254h136l-193 -352v-214zM160 660l-37 66l210 124l52 -100z" />
    <glyph glyph-name="ycircumflex.sc" horiz-adv-x="510" 
d="M319 0h-129v213l-192 353h140l120 -254l118 254h136l-193 -352v-214zM217 839h80l139 -126l-49 -56l-130 88l-130 -88l-49 56z" />
    <glyph glyph-name="ydieresis.sc" horiz-adv-x="510" 
d="M319 0h-129v213l-192 353h140l120 -254l118 254h136l-193 -352v-214zM196 795q20 -20 20 -49t-20 -49t-50 -20q-29 0 -49.5 20t-20.5 49t20.5 49t49.5 20q30 0 50 -20zM418 795q20 -20 20 -49t-20 -49t-50 -20q-29 0 -49.5 20t-20.5 49t20.5 49t49.5 20q30 0 50 -20z" />
    <glyph glyph-name="ygrave.sc" horiz-adv-x="510" 
d="M319 0h-129v213l-192 353h140l120 -254l118 254h136l-193 -352v-214zM354 660l-225 90l52 100l210 -124z" />
    <glyph glyph-name="z.sc" horiz-adv-x="479" 
d="M173 102h271l-13 -102h-408v96l275 371h-247v99h391v-97z" />
    <glyph glyph-name="zacute.sc" horiz-adv-x="479" 
d="M173 102h271l-13 -102h-408v96l275 371h-247v99h391v-97zM149 660l-37 66l210 124l52 -100z" />
    <glyph glyph-name="zcaron.sc" horiz-adv-x="479" 
d="M173 102h271l-13 -102h-408v96l275 371h-247v99h391v-97zM287 649h-81l-139 126l49 56l130 -89l131 89l48 -56z" />
    <glyph glyph-name="zdotaccent.sc" horiz-adv-x="479" 
d="M173 102h271l-13 -102h-408v96l275 371h-247v99h391v-97zM303.5 804.5q22.5 -22.5 22.5 -55.5t-22.5 -55t-58.5 -22q-35 0 -57.5 22t-22.5 55t22.5 55.5t57.5 22.5q36 0 58.5 -22.5z" />
    <glyph glyph-name="ordfeminine" unicode="&#xaa;" horiz-adv-x="500" 
d="M298 544q0 35 -16.5 48t-57.5 13q-48 0 -111 -21l-28 78q81 29 158 29q89 0 130.5 -35.5t41.5 -105.5v-154q0 -23 7 -33.5t23 -15.5l-25 -78q-37 3 -61 16t-39 41q-22 -30 -54.5 -44.5t-72.5 -14.5q-63 0 -100.5 35t-37.5 90q0 65 51 100t146 35h46v17zM298 389v71h-34
q-88 0 -88 -60q0 -23 13.5 -35.5t38.5 -12.5q44 0 70 37zM455 0h-395v102h395v-102z" />
    <glyph glyph-name="ordmasculine" unicode="&#xba;" horiz-adv-x="500" 
d="M401 635q54 -56 54 -156q0 -96 -54.5 -154t-150.5 -58t-150.5 56.5t-54.5 156.5q0 96 55.5 153.5t150.5 57.5q96 0 150 -56zM188.5 574q-20.5 -30 -20.5 -94q0 -65 20.5 -95.5t61.5 -30.5q42 0 62 30.5t20 94.5q0 65 -20 95t-61 30q-42 0 -62.5 -30zM451 102v-102h-401
v102h401z" />
    <glyph glyph-name="uni0410" unicode="&#x410;" horiz-adv-x="583" 
d="M175 160l-43 -160h-137l215 691h163l214 -691h-140l-43 160h-229zM289 590l-88 -330h177z" />
    <glyph glyph-name="uni0411" unicode="&#x411;" horiz-adv-x="588" 
d="M494.5 385q70.5 -54 70.5 -160q0 -114 -73 -169.5t-197 -55.5h-214v691h406l-14 -103h-260v-149h82q129 0 199.5 -54zM391 127.5q35 28.5 35 95.5q0 62 -34.5 91t-103.5 29h-75v-244h78q65 0 100 28.5z" />
    <glyph glyph-name="uni0412" unicode="&#x412;" horiz-adv-x="613" 
d="M534.5 315q43.5 -38 43.5 -116q0 -108 -76 -153.5t-213 -45.5h-208v691h181q286 0 286 -176q0 -61 -37 -99.5t-91 -49.5q71 -13 114.5 -51zM213 407h81q55 0 87 24.5t32 72.5q0 50 -33.5 70t-104.5 20h-62v-187zM401.5 121q38.5 22 38.5 83q0 59 -36.5 85t-99.5 26h-91
v-216h77q73 0 111.5 22z" />
    <glyph glyph-name="uni0413" unicode="&#x413;" horiz-adv-x="509" 
d="M213 584v-584h-132v691h423l-16 -107h-275z" />
    <glyph glyph-name="uni0403" unicode="&#x403;" horiz-adv-x="509" 
d="M213 584v-584h-132v691h423l-16 -107h-275zM207 753l-33 66l211 117l51 -100z" />
    <glyph glyph-name="uni0490" unicode="&#x490;" horiz-adv-x="509" 
d="M504 691l-16 -107h-275v-584h-132v691h299v138h124v-138z" />
    <glyph glyph-name="uni0414" unicode="&#x414;" horiz-adv-x="622" 
d="M594 -158h-96l-17 158h-380l-17 -158h-96v262h50q23 25 37 63.5t25.5 106.5t29.5 208l26 209h379v-587h59v-262zM269 590l-11 -103q-14 -130 -27.5 -201t-33 -113t-52.5 -69v0h260v486h-136z" />
    <glyph glyph-name="uni0415" unicode="&#x415;" horiz-adv-x="530" 
d="M213 593v-193h222v-98h-222v-203h273v-99h-405v691h401l-14 -98h-255z" />
    <glyph glyph-name="uni0400" unicode="&#x400;" horiz-adv-x="530" 
d="M213 593v-193h222v-98h-222v-203h273v-99h-405v691h401l-14 -98h-255zM373 753l-229 83l51 100l211 -117z" />
    <glyph glyph-name="uni0401" unicode="&#x401;" horiz-adv-x="530" 
d="M213 593v-193h222v-98h-222v-203h273v-99h-405v691h401l-14 -98h-255zM222 891q20 -20 20 -49t-20 -49t-50 -20q-29 0 -49.5 20t-20.5 49t20.5 49t49.5 20q30 0 50 -20zM444 891q20 -20 20 -49t-20 -49t-50 -20q-29 0 -49.5 20t-20.5 49t20.5 49t49.5 20q30 0 50 -20z
" />
    <glyph glyph-name="uni0416" unicode="&#x416;" horiz-adv-x="867" 
d="M869 0h-146l-157 312h-71v-312h-123v312h-72l-159 -312h-143l196 373l-177 318h134l151 -280h70v280h123v-280h69l153 280h133l-177 -318z" />
    <glyph glyph-name="uni0417" unicode="&#x417;" horiz-adv-x="532" 
d="M372.5 682.5q50.5 -23.5 76.5 -64t26 -91.5q0 -62 -38 -103t-107 -56q75 -8 121 -51.5t46 -119.5q0 -63 -33.5 -111t-93 -74.5t-136.5 -26.5q-144 0 -231 96l74 71q32 -32 68 -48t81 -16q62 0 96.5 30t34.5 84t-34.5 83.5t-102.5 29.5h-69l16 99h55q54 0 85 26.5t31 72.5
q0 41 -25 67t-77 26q-76 0 -147 -60l-67 71q97 89 229 89q71 0 121.5 -23.5z" />
    <glyph glyph-name="uni0418" unicode="&#x418;" horiz-adv-x="672" 
d="M460 0v294q0 128 19 261l-235 -555h-163v691h131v-297q0 -83 -5 -138t-14 -120l239 555h159v-691h-131z" />
    <glyph glyph-name="uni0419" unicode="&#x419;" horiz-adv-x="672" 
d="M460 0v294q0 128 19 261l-235 -555h-163v691h131v-297q0 -83 -5 -138t-14 -120l239 555h159v-691h-131zM222.5 800.5q-43.5 37.5 -49.5 100.5l76 14q9 -32 30 -46t56 -14t57 14t32 46l75 -14q-6 -63 -50 -100.5t-114 -37.5q-69 0 -112.5 37.5z" />
    <glyph glyph-name="uni040D" unicode="&#x40d;" horiz-adv-x="672" 
d="M460 0v294q0 128 19 261l-235 -555h-163v691h131v-297q0 -83 -5 -138t-14 -120l239 555h159v-691h-131zM426 753l-229 83l51 100l211 -117z" />
    <glyph glyph-name="uni041A" unicode="&#x41a;" horiz-adv-x="608" 
d="M606 0h-148l-162 311h-83v-311h-132v691h132v-279h85l156 279h134l-181 -318z" />
    <glyph glyph-name="uni040C" unicode="&#x40c;" horiz-adv-x="608" 
d="M606 0h-148l-162 311h-83v-311h-132v691h132v-279h85l156 279h134l-181 -318zM204 753l-33 66l211 117l51 -100z" />
    <glyph glyph-name="uni041B" unicode="&#x41b;" horiz-adv-x="657" 
d="M576 0h-132v587h-177l-29 -263q-14 -122 -34.5 -187.5t-58 -99.5t-106.5 -52l-31 97q37 14 55 37.5t27.5 67t20.5 138.5l43 366h422v-691z" />
    <glyph glyph-name="uni041C" unicode="&#x41c;" horiz-adv-x="794" 
d="M607 0l-18 289q-9 151 -9 239v43l-126 -496h-125l-134 497q3 -48 3 -97q0 -76 -7 -190l-17 -285h-128l55 691h170l123 -484l116 484h172l54 -691h-129z" />
    <glyph glyph-name="uni041D" unicode="&#x41d;" horiz-adv-x="672" 
d="M213 309v-309h-132v691h132v-277h246v277h133v-691h-133v309h-246z" />
    <glyph glyph-name="uni041E" unicode="&#x41e;" horiz-adv-x="691" 
d="M507 664q68 -42 104.5 -123t36.5 -195q0 -113 -37 -194t-105 -124t-160 -43q-93 0 -161 42t-105 123t-37 195q0 112 37 193.5t105.5 124.5t160.5 43q93 0 161 -42zM224 542.5q-42 -62.5 -42 -197.5q0 -259 164 -259q80 0 121.5 62t41.5 198q0 135 -41.5 197t-121.5 62
t-122 -62.5z" />
    <glyph glyph-name="uni041F" unicode="&#x41f;" horiz-adv-x="669" 
d="M456 0v586h-243v-586h-132v691h507v-691h-132z" />
    <glyph glyph-name="uni0420" unicode="&#x420;" horiz-adv-x="591" 
d="M491.5 636q73.5 -55 73.5 -165q0 -115 -74 -172.5t-197 -57.5h-81v-241h-132v691h204q133 0 206.5 -55zM391 369.5q36 29.5 36 101.5q0 123 -143 123h-71v-254h71q71 0 107 29.5z" />
    <glyph glyph-name="uni0421" unicode="&#x421;" horiz-adv-x="568" 
d="M455.5 688q47.5 -18 91.5 -55l-68 -79q-59 50 -128 50q-77 0 -123 -62t-46 -195q0 -131 46 -193.5t125 -62.5q40 0 71 15t69 43l62 -80q-35 -36 -88.5 -60t-119.5 -24q-90 0 -159 42t-107 123.5t-38 196.5q0 113 39.5 194t107.5 123t153 42q65 0 112.5 -18z" />
    <glyph glyph-name="uni0422" unicode="&#x422;" horiz-adv-x="530" 
d="M331 586v-586h-133v586h-186v105h513l-14 -105h-180z" />
    <glyph glyph-name="uni0423" unicode="&#x423;" 
d="M316.5 79.5q-34.5 -42.5 -82.5 -64t-122 -30.5l-18 92q68 11 102.5 34t57.5 75h-44l-217 505h138l163 -428l144 428h134l-192 -494q-29 -75 -63.5 -117.5z" />
    <glyph glyph-name="uni040E" unicode="&#x40e;" 
d="M316.5 79.5q-34.5 -42.5 -82.5 -64t-122 -30.5l-18 92q68 11 102.5 34t57.5 75h-44l-217 505h138l163 -428l144 428h134l-192 -494q-29 -75 -63.5 -117.5zM166.5 800.5q-43.5 37.5 -49.5 100.5l76 14q9 -32 30 -46t56 -14t57 14t32 46l75 -14q-6 -63 -50 -100.5
t-114 -37.5q-69 0 -112.5 37.5z" />
    <glyph glyph-name="uni0424" unicode="&#x424;" horiz-adv-x="838" 
d="M722 125q-86 -76 -239 -81v-81h-129v81q-156 7 -240 83t-84 220q0 149 85.5 225.5t238.5 81.5v73h129v-74q156 -7 240.5 -83t84.5 -220q0 -149 -86 -225zM212.5 188.5q47.5 -52.5 146.5 -57.5v436q-100 -7 -147 -59.5t-47 -160.5q0 -106 47.5 -158.5zM626 189.5
q47 52.5 47 160.5q0 107 -47.5 159t-147.5 57v-436q101 7 148 59.5z" />
    <glyph glyph-name="uni0425" unicode="&#x425;" horiz-adv-x="562" 
d="M416 0l-138 283l-137 -283h-141l200 368l-184 323h147l117 -239l122 239h141l-185 -318l205 -373h-147z" />
    <glyph glyph-name="uni0427" unicode="&#x427;" horiz-adv-x="614" 
d="M534 0h-132v266q-39 -30 -76.5 -43t-86.5 -13q-97 0 -153 60t-56 163v258h131v-253q0 -64 28.5 -94.5t85.5 -30.5q78 0 127 47v331h132v-691z" />
    <glyph glyph-name="uni0426" unicode="&#x426;" horiz-adv-x="689" 
d="M660 -159h-96l-17 159h-466v691h132v-586h234v586h133v-587h80v-263z" />
    <glyph glyph-name="uni0428" unicode="&#x428;" horiz-adv-x="917" 
d="M81 0v691h130v-586h185v586h124v-586h186v586h130v-691h-755z" />
    <glyph glyph-name="uni0429" unicode="&#x429;" horiz-adv-x="929" 
d="M916 -159h-96l-17 159h-722v691h130v-586h185v586h124v-586h186v586h130v-587h80v-263z" />
    <glyph glyph-name="uni040F" unicode="&#x40f;" horiz-adv-x="661" 
d="M383 0v-159h-96l-17 159h-189v691h132v-586h234v586h133v-691h-197z" />
    <glyph glyph-name="uni042F" unicode="&#x42f;" horiz-adv-x="600" 
d="M520 0h-133v259h-108l-123 -259h-148l149 283q-62 26 -94 74t-32 117q0 106 69 161.5t205 55.5h215v-691zM387 595h-74q-74 0 -108.5 -30.5t-34.5 -92.5q0 -57 32.5 -86.5t87.5 -29.5h97v239z" />
    <glyph glyph-name="uni042C" unicode="&#x42c;" horiz-adv-x="585" 
d="M494.5 392.5q70.5 -54.5 70.5 -163.5q0 -116 -73 -172.5t-197 -56.5h-214v691h132v-244h82q129 0 199.5 -54.5zM391 128q35 29 35 99q0 65 -34.5 94.5t-103.5 29.5h-75v-252h78q65 0 100 29z" />
    <glyph glyph-name="uni042A" unicode="&#x42a;" horiz-adv-x="673" 
d="M582.5 392.5q70.5 -54.5 70.5 -162.5q0 -117 -73 -173.5t-197 -56.5h-214l-1 587h-168v104l169 1l132 -1v-244h82q129 0 199.5 -54.5zM479 129q35 29 35 99q0 65 -34.5 94.5t-103.5 29.5h-75v-252h78q65 0 100 29z" />
    <glyph glyph-name="uni042B" unicode="&#x42b;" horiz-adv-x="836" 
d="M484 392.5q71 -54.5 71 -163.5q0 -116 -73 -172.5t-197 -56.5h-204v691h132v-244h70q130 0 201 -54.5zM755 0h-132v691h132v-691zM381 128q35 29 35 99q0 65 -35 94.5t-105 29.5h-63v-252h68q65 0 100 29z" />
    <glyph glyph-name="uni0409" unicode="&#x409;" horiz-adv-x="917" 
d="M826 392.5q71 -54.5 71 -163.5q0 -116 -73 -172.5t-197 -56.5h-204v587h-156l-29 -263q-14 -122 -34.5 -187.5t-58 -99.5t-106.5 -52l-31 97q37 14 55 37.5t27.5 67t20.5 138.5l43 366h401v-244h70q130 0 201 -54.5zM723 128q35 29 35 99q0 65 -35 94.5t-105 29.5h-63
v-252h68q65 0 100 29z" />
    <glyph glyph-name="uni040A" unicode="&#x40a;" horiz-adv-x="948" 
d="M858 377.5q70 -53.5 70 -156.5q0 -111 -72 -166t-192 -55h-210v333h-241v-333h-132v691h132v-260h241v260h133v-260h75q126 0 196 -53.5zM755.5 127.5q33.5 27.5 33.5 91.5q0 59 -33.5 86.5t-98.5 27.5h-70v-233h74q61 0 94.5 27.5z" />
    <glyph glyph-name="uni0405" unicode="&#x405;" 
d="M407 685q54 -21 101 -64l-67 -76q-36 31 -73 45.5t-80 14.5q-48 0 -77.5 -21.5t-29.5 -60.5q0 -26 11.5 -43t41.5 -32t89 -33q102 -32 153.5 -79.5t51.5 -138.5q0 -62 -31.5 -110t-90.5 -75t-140 -27q-79 0 -141.5 25.5t-107.5 69.5l70 78q76 -71 176 -71q57 0 92 27
t35 76q0 30 -12 49.5t-41 35t-84 32.5q-110 34 -159 82t-49 126q0 57 30 100t83.5 67t121.5 24q73 0 127 -21z" />
    <glyph glyph-name="uni0404" unicode="&#x404;" horiz-adv-x="570" 
d="M465.5 9q-54.5 -24 -122.5 -24q-89 0 -156.5 42t-105.5 123.5t-38 196.5q0 113 39.5 194t107.5 123t153 42q65 0 112 -18t92 -55l-67 -78q-32 26 -63 38t-67 12q-70 0 -116 -49.5t-53 -151.5h248v-98h-249q4 -108 51 -162.5t119 -54.5q43 0 75.5 15t68.5 43l61 -78
q-35 -36 -89.5 -60z" />
    <glyph glyph-name="uni042D" unicode="&#x42d;" horiz-adv-x="543" 
d="M426.5 616q73.5 -90 73.5 -269q0 -174 -74.5 -268t-205.5 -94q-66 0 -115 20.5t-88 57.5l62 77q32 -26 62 -38.5t71 -12.5q144 0 151 217h-249v98h248q-5 105 -42.5 153t-103.5 48q-41 0 -71 -11.5t-65 -39.5l-65 77q45 37 94.5 56t114.5 19q129 0 202.5 -90z" />
    <glyph glyph-name="uni0406" unicode="&#x406;" horiz-adv-x="295" 
d="M81 0v691h133v-691h-133z" />
    <glyph glyph-name="uni0407" unicode="&#x407;" horiz-adv-x="295" 
d="M81 0v691h133v-691h-133zM86 891q20 -20 20 -49t-20 -49t-50 -20q-29 0 -49.5 20t-20.5 49t20.5 49t49.5 20q30 0 50 -20zM308 891q20 -20 20 -49t-20 -49t-50 -20q-29 0 -49.5 20t-20.5 49t20.5 49t49.5 20q30 0 50 -20z" />
    <glyph glyph-name="uni0408" unicode="&#x408;" horiz-adv-x="312" 
d="M182.5 -66.5q-52.5 -56.5 -150.5 -88.5l-35 95q44 17 66.5 38.5t30.5 51t8 76.5v585h133v-590q0 -111 -52.5 -167.5z" />
    <glyph glyph-name="uni040B" unicode="&#x40b;" horiz-adv-x="735" 
d="M649.5 401q55.5 -61 55.5 -170v-231h-133v231q0 65 -27 96.5t-86 31.5q-42 0 -72.5 -14.5t-55.5 -43.5v-301h-133v587h-186v104h513l-14 -104h-180v-187q64 62 162 62q101 0 156.5 -61z" />
    <glyph glyph-name="uni042E" unicode="&#x42e;" horiz-adv-x="917" 
d="M796.5 612q77.5 -94 77.5 -266q0 -113 -35 -194t-101 -124t-157 -43q-128 0 -202.5 83.5t-85.5 236.5h-80v-305h-132v691h132v-280h83q17 142 90.5 218.5t194.5 76.5q138 0 215.5 -94zM695 148q39 62 39 198q0 135 -38.5 197t-114.5 62q-75 0 -114 -63t-39 -200
q0 -256 153 -256q75 0 114 62z" />
    <glyph glyph-name="uni0402" unicode="&#x402;" horiz-adv-x="735" 
d="M649.5 401q55.5 -61 55.5 -169v-131q0 -111 -52.5 -167.5t-150.5 -88.5l-36 95q45 17 67.5 38.5t30.5 51t8 76.5v125q0 65 -27 96.5t-86 31.5q-42 0 -72.5 -14.5t-55.5 -43.5v-301h-133v587h-186v104h513l-14 -104h-180v-186q64 61 162 61q101 0 156.5 -61z" />
    <glyph glyph-name="uni0462" unicode="&#x462;" horiz-adv-x="706" 
d="M612 385q71 -54 71 -160q0 -114 -73 -169.5t-197 -55.5h-215v587h-186v104h513l-13 -104h-181v-148h82q128 0 199 -54zM508.5 127.5q34.5 28.5 34.5 95.5q0 62 -34 91t-103 29h-75v-244h78q65 0 99.5 28.5z" />
    <glyph glyph-name="uni0472" unicode="&#x472;" horiz-adv-x="691" 
d="M507 664q68 -42 104.5 -123t36.5 -195q0 -113 -37 -194t-105 -124t-160 -43q-93 0 -161 42t-105 123t-37 195q0 112 37 193.5t105.5 124.5t160.5 43q93 0 161 -42zM180 392h331q-7 111 -49 162t-116 51q-151 0 -166 -213zM463.5 140q42.5 54 48.5 170h-332
q6 -116 49 -170t117 -54q75 0 117.5 54z" />
    <glyph glyph-name="uni0474" unicode="&#x474;" horiz-adv-x="563" 
d="M552 621.5q-13 -30.5 -29 -81.5l-160 -540h-158l-210 691h141l150 -577l117 458q12 47 22.5 74.5t27.5 55.5l130 -23q-18 -27 -31 -57.5z" />
    <glyph glyph-name="uni0492" unicode="&#x492;" horiz-adv-x="518" 
d="M222 420h148v-86h-148v-334h-132v334h-88v86h88v271h423l-16 -108h-275v-163z" />
    <glyph glyph-name="uni0496" unicode="&#x496;" horiz-adv-x="867" 
d="M886 -159h-96l-16 159h-51l-157 312h-71v-312h-123v312h-72l-159 -312h-143l196 373l-177 318h134l151 -280h70v280h123v-280h69l153 280h133l-177 -318l141 -269h72v-263z" />
    <glyph glyph-name="uni0498" unicode="&#x498;" horiz-adv-x="532" 
d="M440 57.5q-57 -55.5 -151 -68.5q80 -48 80 -120q0 -54 -38 -86.5t-101 -32.5q-59 0 -104 26l28 67q32 -17 65 -17q28 0 42 14.5t14 39.5q0 59 -70 106q-125 9 -202 95l74 71q32 -32 68 -48t81 -16q62 0 96.5 30t34.5 84t-34.5 83.5t-102.5 29.5h-69l16 99h55
q54 0 85 26.5t31 72.5q0 41 -25 67t-77 26q-76 0 -147 -60l-67 71q97 89 229 89q71 0 121.5 -23.5t76.5 -64t26 -91.5q0 -62 -38 -103t-107 -56q75 -8 121 -51.5t46 -119.5q0 -84 -57 -139.5z" />
    <glyph glyph-name="uni049A" unicode="&#x49a;" horiz-adv-x="608" 
d="M619 -159h-96l-17 159h-48l-162 311h-83v-311h-132v691h132v-279h85l156 279h134l-181 -318l144 -269h68v-263z" />
    <glyph glyph-name="uni049C" unicode="&#x49c;" horiz-adv-x="612" 
d="M463 0l-140 314h-19v-166h-58v166h-37v-314h-128v691h128v-283h37v164h58v-164h19l134 283h133l-164 -318l183 -373h-146z" />
    <glyph glyph-name="uni04A0" unicode="&#x4a0;" horiz-adv-x="695" 
d="M546 0l-162 311h-83v-311h-132v587h-169v104l169 1h132v-280h85l156 280h133l-180 -319l199 -373h-148z" />
    <glyph glyph-name="uni04A2" unicode="&#x4a2;" horiz-adv-x="685" 
d="M672 -159h-96l-17 159h-100v309h-246v-309h-132v691h132v-277h246v277h133v-587h80v-263z" />
    <glyph glyph-name="uni0524" unicode="&#x524;" horiz-adv-x="681" 
d="M668 -159h-96l-16 159h-100v586h-243v-586h-132v691h507v-587h80v-263z" />
    <glyph glyph-name="uni04AA" unicode="&#x4aa;" horiz-adv-x="568" 
d="M483.5 17q-42.5 -22 -95.5 -29q79 -47 79 -119q0 -54 -38 -86.5t-101 -32.5q-58 0 -104 25l28 68q32 -17 65 -17q28 0 42 14t14 39q0 62 -72 109q-119 15 -188.5 108t-69.5 251q0 113 39.5 194t107.5 123t153 42q65 0 112.5 -18t91.5 -55l-68 -79q-59 50 -128 50
q-77 0 -123 -62t-46 -195q0 -131 46 -193.5t125 -62.5q40 0 71 15t69 43l62 -80q-29 -30 -71.5 -52z" />
    <glyph glyph-name="uni04AC" unicode="&#x4ac;" horiz-adv-x="530" 
d="M331 104h80v-263h-96l-17 159h-100v586h-186v105h513l-14 -105h-180v-482z" />
    <glyph glyph-name="uni04AE" unicode="&#x4ae;" horiz-adv-x="574" 
d="M354 0h-134v261l-222 430h146l146 -321l146 321h140l-222 -429v-262z" />
    <glyph glyph-name="uni04B0" unicode="&#x4b0;" horiz-adv-x="574" 
d="M470 311v-82h-116v-229h-134v229h-116v82h91l-197 380h146l146 -321l146 321h140l-197 -380h91z" />
    <glyph glyph-name="uni04B2" unicode="&#x4b2;" horiz-adv-x="562" 
d="M576 -159h-96l-16 159h-48l-138 283l-137 -283h-141l200 368l-184 323h147l117 -239l122 239h141l-185 -318l147 -269h71v-263z" />
    <glyph glyph-name="uni04B6" unicode="&#x4b6;" horiz-adv-x="628" 
d="M615 -158h-96l-17 158h-100v266q-39 -30 -76.5 -43t-86.5 -13q-97 0 -153 60t-56 163v258h131v-253q0 -64 28.5 -94.5t85.5 -30.5q78 0 127 47v331h132v-587h81v-262z" />
    <glyph glyph-name="uni04B8" unicode="&#x4b8;" horiz-adv-x="622" 
d="M534 0h-132v266q-44 -33 -84 -45v-99h-61v88h-18q-97 0 -153 60t-56 163v258h131v-253q0 -59 24 -89.5t72 -35.5v232h61v-228q49 9 84 43v331h132v-691z" />
    <glyph glyph-name="uni04BA" unicode="&#x4ba;" horiz-adv-x="617" 
d="M532 401q55 -61 55 -169v-232h-132v231q0 64 -27.5 96t-86.5 32q-42 0 -72.5 -14.5t-55.5 -43.5v-301h-132v688h132v-287q64 61 162 61q102 0 157 -61z" />
    <glyph glyph-name="uni0526" unicode="&#x526;" horiz-adv-x="632" 
d="M667 -159h-96l-17 159h-99v231q0 64 -27.5 96t-86.5 32q-42 0 -72.5 -14.5t-55.5 -43.5v-301h-132v688h132v-287q64 61 162 61q102 0 157 -61t55 -169v-128h80v-263z" />
    <glyph glyph-name="uni04C0" unicode="&#x4c0;" horiz-adv-x="295" 
d="M81 0v691h133v-691h-133z" />
    <glyph glyph-name="uni04C1" unicode="&#x4c1;" horiz-adv-x="867" 
d="M869 0h-146l-157 312h-71v-312h-123v312h-72l-159 -312h-143l196 373l-177 318h134l151 -280h70v280h123v-280h69l153 280h133l-177 -318zM319.5 800.5q-43.5 37.5 -49.5 100.5l76 14q9 -32 30 -46t56 -14t57 14t32 46l75 -14q-6 -63 -50 -100.5t-114 -37.5
q-69 0 -112.5 37.5z" />
    <glyph glyph-name="uni04CB" unicode="&#x4cb;" horiz-adv-x="614" 
d="M534 0h-100l-17 -158h-96v262h81v162q-39 -30 -76.5 -43t-86.5 -13q-97 0 -153 60t-56 163v258h131v-253q0 -64 28.5 -94.5t85.5 -30.5q78 0 127 47v331h132v-691z" />
    <glyph glyph-name="uni04D0" unicode="&#x4d0;" horiz-adv-x="583" 
d="M175 160l-43 -160h-137l215 691h163l214 -691h-140l-43 160h-229zM289 590l-88 -330h177zM177.5 800.5q-43.5 37.5 -49.5 100.5l76 14q9 -32 30 -46t56 -14t57 14t32 46l75 -14q-6 -63 -50 -100.5t-114 -37.5q-69 0 -112.5 37.5z" />
    <glyph glyph-name="uni04D2" unicode="&#x4d2;" horiz-adv-x="583" 
d="M175 160l-43 -160h-137l215 691h163l214 -691h-140l-43 160h-229zM289 590l-88 -330h177zM230 891q20 -20 20 -49t-20 -49t-50 -20q-29 0 -49.5 20t-20.5 49t20.5 49t49.5 20q30 0 50 -20zM452 891q20 -20 20 -49t-20 -49t-50 -20q-29 0 -49.5 20t-20.5 49t20.5 49
t49.5 20q30 0 50 -20z" />
    <glyph glyph-name="uni04D6" unicode="&#x4d6;" horiz-adv-x="530" 
d="M213 593v-193h222v-98h-222v-203h273v-99h-405v691h401l-14 -98h-255zM169.5 800.5q-43.5 37.5 -49.5 100.5l76 14q9 -32 30 -46t56 -14t57 14t32 46l75 -14q-6 -63 -50 -100.5t-114 -37.5q-69 0 -112.5 37.5z" />
    <glyph glyph-name="uni04D8" unicode="&#x4d8;" horiz-adv-x="644" 
d="M525 617q76 -89 76 -263q0 -122 -35.5 -204.5t-100 -123.5t-150.5 -41q-140 0 -211 91.5t-71 260.5q0 21 4 59h428q-4 109 -45 159t-118 50q-49 0 -89.5 -16.5t-77.5 -45.5l-64 76q50 43 109.5 65t131.5 22q137 0 213 -89zM421 136q39 51 44 164h-303q3 -215 150 -215
q70 0 109 51z" />
    <glyph glyph-name="uni04DA" unicode="&#x4da;" horiz-adv-x="644" 
d="M525 617q76 -89 76 -263q0 -122 -35.5 -204.5t-100 -123.5t-150.5 -41q-140 0 -211 91.5t-71 260.5q0 21 4 59h428q-4 109 -45 159t-118 50q-49 0 -89.5 -16.5t-77.5 -45.5l-64 76q50 43 109.5 65t131.5 22q137 0 213 -89zM421 136q39 51 44 164h-303q3 -215 150 -215
q70 0 109 51zM250 891q20 -20 20 -49t-20 -49t-50 -20q-29 0 -49.5 20t-20.5 49t20.5 49t49.5 20q30 0 50 -20zM472 891q20 -20 20 -49t-20 -49t-50 -20q-29 0 -49.5 20t-20.5 49t20.5 49t49.5 20q30 0 50 -20z" />
    <glyph glyph-name="uni04DC" unicode="&#x4dc;" horiz-adv-x="867" 
d="M869 0h-146l-157 312h-71v-312h-123v312h-72l-159 -312h-143l196 373l-177 318h134l151 -280h70v280h123v-280h69l153 280h133l-177 -318zM372 891q20 -20 20 -49t-20 -49t-50 -20q-29 0 -49.5 20t-20.5 49t20.5 49t49.5 20q30 0 50 -20zM594 891q20 -20 20 -49t-20 -49
t-50 -20q-29 0 -49.5 20t-20.5 49t20.5 49t49.5 20q30 0 50 -20z" />
    <glyph glyph-name="uni04DE" unicode="&#x4de;" horiz-adv-x="532" 
d="M372.5 682.5q50.5 -23.5 76.5 -64t26 -91.5q0 -62 -38 -103t-107 -56q75 -8 121 -51.5t46 -119.5q0 -63 -33.5 -111t-93 -74.5t-136.5 -26.5q-144 0 -231 96l74 71q32 -32 68 -48t81 -16q62 0 96.5 30t34.5 84t-34.5 83.5t-102.5 29.5h-69l16 99h55q54 0 85 26.5t31 72.5
q0 41 -25 67t-77 26q-76 0 -147 -60l-67 71q97 89 229 89q71 0 121.5 -23.5zM203 891q20 -20 20 -49t-20 -49t-50 -20q-29 0 -49.5 20t-20.5 49t20.5 49t49.5 20q30 0 50 -20zM425 891q20 -20 20 -49t-20 -49t-50 -20q-29 0 -49.5 20t-20.5 49t20.5 49t49.5 20q30 0 50 -20z
" />
    <glyph glyph-name="uni04E2" unicode="&#x4e2;" horiz-adv-x="672" 
d="M460 0v294q0 128 19 261l-235 -555h-163v691h131v-297q0 -83 -5 -138t-14 -120l239 555h159v-691h-131zM190 874h291v-91h-291v91z" />
    <glyph glyph-name="uni04E4" unicode="&#x4e4;" horiz-adv-x="672" 
d="M460 0v294q0 128 19 261l-235 -555h-163v691h131v-297q0 -83 -5 -138t-14 -120l239 555h159v-691h-131zM275 891q20 -20 20 -49t-20 -49t-50 -20q-29 0 -49.5 20t-20.5 49t20.5 49t49.5 20q30 0 50 -20zM497 891q20 -20 20 -49t-20 -49t-50 -20q-29 0 -49.5 20t-20.5 49
t20.5 49t49.5 20q30 0 50 -20z" />
    <glyph glyph-name="uni04E6" unicode="&#x4e6;" horiz-adv-x="691" 
d="M507 664q68 -42 104.5 -123t36.5 -195q0 -113 -37 -194t-105 -124t-160 -43q-93 0 -161 42t-105 123t-37 195q0 112 37 193.5t105.5 124.5t160.5 43q93 0 161 -42zM224 542.5q-42 -62.5 -42 -197.5q0 -259 164 -259q80 0 121.5 62t41.5 198q0 135 -41.5 197t-121.5 62
t-122 -62.5zM287 891q20 -20 20 -49t-20 -49t-50 -20q-29 0 -49.5 20t-20.5 49t20.5 49t49.5 20q30 0 50 -20zM509 891q20 -20 20 -49t-20 -49t-50 -20q-29 0 -49.5 20t-20.5 49t20.5 49t49.5 20q30 0 50 -20z" />
    <glyph glyph-name="uni04E8" unicode="&#x4e8;" horiz-adv-x="691" 
d="M507 664q68 -42 104.5 -123t36.5 -195q0 -113 -37 -194t-105 -124t-160 -43q-93 0 -161 42t-105 123t-37 195q0 112 37 193.5t105.5 124.5t160.5 43q93 0 161 -42zM180 392h331q-7 111 -49 162t-116 51q-151 0 -166 -213zM463.5 140q42.5 54 48.5 170h-332
q6 -116 49 -170t117 -54q75 0 117.5 54z" />
    <glyph glyph-name="uni04EA" unicode="&#x4ea;" horiz-adv-x="691" 
d="M507 664q68 -42 104.5 -123t36.5 -195q0 -113 -37 -194t-105 -124t-160 -43q-93 0 -161 42t-105 123t-37 195q0 112 37 193.5t105.5 124.5t160.5 43q93 0 161 -42zM180 392h331q-7 111 -49 162t-116 51q-151 0 -166 -213zM463.5 140q42.5 54 48.5 170h-332
q6 -116 49 -170t117 -54q75 0 117.5 54zM284 891q20 -20 20 -49t-20 -49t-50 -20q-29 0 -49.5 20t-20.5 49t20.5 49t49.5 20q30 0 50 -20zM506 891q20 -20 20 -49t-20 -49t-50 -20q-29 0 -49.5 20t-20.5 49t20.5 49t49.5 20q30 0 50 -20z" />
    <glyph glyph-name="uni04EC" unicode="&#x4ec;" horiz-adv-x="543" 
d="M426.5 616q73.5 -90 73.5 -269q0 -174 -74.5 -268t-205.5 -94q-66 0 -115 20.5t-88 57.5l62 77q32 -26 62 -38.5t71 -12.5q144 0 151 217h-249v98h248q-5 105 -42.5 153t-103.5 48q-41 0 -71 -11.5t-65 -39.5l-65 77q45 37 94.5 56t114.5 19q129 0 202.5 -90zM177 891
q20 -20 20 -49t-20 -49t-50 -20q-29 0 -49.5 20t-20.5 49t20.5 49t49.5 20q30 0 50 -20zM399 891q20 -20 20 -49t-20 -49t-50 -20q-29 0 -49.5 20t-20.5 49t20.5 49t49.5 20q30 0 50 -20z" />
    <glyph glyph-name="uni04EE" unicode="&#x4ee;" 
d="M316.5 79.5q-34.5 -42.5 -82.5 -64t-122 -30.5l-18 92q68 11 102.5 34t57.5 75h-44l-217 505h138l163 -428l144 428h134l-192 -494q-29 -75 -63.5 -117.5zM134 874h291v-91h-291v91z" />
    <glyph glyph-name="uni04F0" unicode="&#x4f0;" 
d="M316.5 79.5q-34.5 -42.5 -82.5 -64t-122 -30.5l-18 92q68 11 102.5 34t57.5 75h-44l-217 505h138l163 -428l144 428h134l-192 -494q-29 -75 -63.5 -117.5zM219 891q20 -20 20 -49t-20 -49t-50 -20q-29 0 -49.5 20t-20.5 49t20.5 49t49.5 20q30 0 50 -20zM441 891
q20 -20 20 -49t-20 -49t-50 -20q-29 0 -49.5 20t-20.5 49t20.5 49t49.5 20q30 0 50 -20z" />
    <glyph glyph-name="uni04F2" unicode="&#x4f2;" 
d="M316.5 79.5q-34.5 -42.5 -82.5 -64t-122 -30.5l-18 92q68 11 102.5 34t57.5 75h-44l-217 505h138l163 -428l144 428h134l-192 -494q-29 -75 -63.5 -117.5zM228 760l-72 30l83 184l94 -47zM383 755l-71 33l92 186l93 -48z" />
    <glyph glyph-name="uni04F4" unicode="&#x4f4;" horiz-adv-x="614" 
d="M534 0h-132v266q-39 -30 -76.5 -43t-86.5 -13q-97 0 -153 60t-56 163v258h131v-253q0 -64 28.5 -94.5t85.5 -30.5q78 0 127 47v331h132v-691zM220 891q20 -20 20 -49t-20 -49t-50 -20q-29 0 -49.5 20t-20.5 49t20.5 49t49.5 20q30 0 50 -20zM442 891q20 -20 20 -49
t-20 -49t-50 -20q-29 0 -49.5 20t-20.5 49t20.5 49t49.5 20q30 0 50 -20z" />
    <glyph glyph-name="uni04F6" unicode="&#x4f6;" horiz-adv-x="509" 
d="M213 104h80v-262h-96l-16 158h-100v691h423l-16 -107h-275v-480z" />
    <glyph glyph-name="uni04F8" unicode="&#x4f8;" horiz-adv-x="836" 
d="M484 392.5q71 -54.5 71 -163.5q0 -116 -73 -172.5t-197 -56.5h-204v691h132v-244h70q130 0 201 -54.5zM755 0h-132v691h132v-691zM381 128q35 29 35 99q0 65 -35 94.5t-105 29.5h-63v-252h68q65 0 100 29zM355 891q20 -20 20 -49t-20 -49t-50 -20q-29 0 -49.5 20
t-20.5 49t20.5 49t49.5 20q30 0 50 -20zM577 891q20 -20 20 -49t-20 -49t-50 -20q-29 0 -49.5 20t-20.5 49t20.5 49t49.5 20q30 0 50 -20z" />
    <glyph glyph-name="uni051C" unicode="&#x51c;" horiz-adv-x="837" 
d="M522 0l-105 551l-108 -551h-167l-125 691h131l88 -586l113 586h140l111 -586l96 586h125l-127 -691h-172z" />
    <glyph glyph-name="uni0430" unicode="&#x430;" horiz-adv-x="546" 
d="M477.5 94.5q9.5 -14.5 30.5 -22.5l-27 -85q-45 4 -73.5 21.5t-43.5 55.5q-27 -40 -67.5 -59.5t-90.5 -19.5q-79 0 -125 45t-46 118q0 86 62.5 131.5t178.5 45.5h66v30q0 51 -23.5 71.5t-75.5 20.5q-58 0 -140 -28l-30 87q99 38 192 38q203 0 203 -182v-222
q0 -31 9.5 -45.5zM342 143v107h-53q-124 0 -124 -92q0 -38 19 -59t56 -21q65 0 102 65z" />
    <glyph glyph-name="uni0431" unicode="&#x431;" horiz-adv-x="576" 
d="M437 465q45 -29 70.5 -84.5t25.5 -131.5q0 -82 -30.5 -141.5t-85.5 -91t-128 -31.5q-113 0 -179.5 76.5t-66.5 232.5q0 115 18.5 189t64.5 121.5t129 74.5q61 20 96 35.5t76 40.5l49 -86q-35 -23 -74 -40.5t-94 -35.5q-46 -15 -73.5 -35t-43.5 -56.5t-22 -98.5
q28 43 69.5 67t96.5 24q57 0 102 -29zM368.5 118.5q29.5 36.5 29.5 126.5q0 83 -24 117.5t-72 34.5q-38 0 -70.5 -20.5t-53.5 -60.5v-67q0 -82 29 -124.5t81 -42.5q51 0 80.5 36.5z" />
    <glyph glyph-name="uni0432" unicode="&#x432;" 
d="M483.5 249q33.5 -33 33.5 -91q0 -80 -63 -119t-168 -39h-209v523q107 21 193 21q103 0 162 -36t59 -104q0 -44 -26 -73t-84 -42q69 -7 102.5 -40zM205 452v-134h72q87 0 87 71q0 68 -94 68q-28 0 -65 -5zM353.5 105q30.5 16 30.5 60q0 42 -26 59.5t-73 17.5h-80v-153h68
q50 0 80.5 16z" />
    <glyph glyph-name="uni0433" unicode="&#x433;" horiz-adv-x="431" 
d="M77 529h354l-15 -100h-211v-429h-128v529z" />
    <glyph glyph-name="uni0453" unicode="&#x453;" horiz-adv-x="431" 
d="M77 529h354l-15 -100h-211v-429h-128v529zM149 630l-36 65l210 125l52 -100z" />
    <glyph glyph-name="uni0491" unicode="&#x491;" horiz-adv-x="430" 
d="M431 529l-15 -100h-211v-429h-128v529h234v145h120v-145z" />
    <glyph glyph-name="uni0434" unicode="&#x434;" horiz-adv-x="556" 
d="M534 -159h-94l-17 159h-312l-17 -159h-94v256h35q21 14 33.5 34.5t23 69.5t17.5 141l14 187h355v-432h56v-256zM235 439l-7 -84q-7 -86 -17 -135t-27 -76.5t-48 -46.5h219v342h-120z" />
    <glyph glyph-name="uni0435" unicode="&#x435;" horiz-adv-x="552" 
d="M508 225h-332q7 -77 40.5 -110t89.5 -33q35 0 66 11.5t66 35.5l53 -73q-88 -71 -196 -71q-121 0 -186.5 74t-65.5 202q0 81 28 145.5t81 101t126 36.5q111 0 172 -70.5t61 -196.5q0 -10 -3 -52zM384 314q0 139 -103 139q-47 0 -73.5 -34.5t-31.5 -110.5h208v6z" />
    <glyph glyph-name="uni0450" unicode="&#x450;" horiz-adv-x="552" 
d="M508 225h-332q7 -77 40.5 -110t89.5 -33q35 0 66 11.5t66 35.5l53 -73q-88 -71 -196 -71q-121 0 -186.5 74t-65.5 202q0 81 28 145.5t81 101t126 36.5q111 0 172 -70.5t61 -196.5q0 -10 -3 -52zM384 314q0 139 -103 139q-47 0 -73.5 -34.5t-31.5 -110.5h208v6zM385 630
l-225 90l52 100l210 -125z" />
    <glyph glyph-name="uni0451" unicode="&#x451;" horiz-adv-x="552" 
d="M508 225h-332q7 -77 40.5 -110t89.5 -33q35 0 66 11.5t66 35.5l53 -73q-88 -71 -196 -71q-121 0 -186.5 74t-65.5 202q0 81 28 145.5t81 101t126 36.5q111 0 172 -70.5t61 -196.5q0 -10 -3 -52zM384 314q0 139 -103 139q-47 0 -73.5 -34.5t-31.5 -110.5h208v6zM219 765
q20 -20 20 -49t-20 -49t-50 -20q-29 0 -49.5 20t-20.5 49t20.5 49t49.5 20q30 0 50 -20zM441 765q20 -20 20 -49t-20 -49t-51 -20q-29 0 -49 20t-20 49t20 49t49 20q31 0 51 -20z" />
    <glyph glyph-name="uni0436" unicode="&#x436;" horiz-adv-x="740" 
d="M729 0h-134l-110 232h-58v-232h-115v232h-57l-111 -232h-132l141 282l-126 247h125l101 -212h59v212h115v-212h60l102 212h124l-126 -247z" />
    <glyph glyph-name="uni0437" unicode="&#x437;" horiz-adv-x="499" 
d="M370.5 505.5q57.5 -38.5 57.5 -104.5q0 -46 -27.5 -75t-84.5 -43q70 -11 104.5 -41.5t34.5 -87.5q0 -82 -65.5 -125.5t-170.5 -43.5q-123 0 -211 65l63 75q36 -24 68.5 -34.5t74.5 -10.5q107 0 107 79q0 71 -113 71h-77l8 88h58q46 0 73 17.5t27 53.5q0 33 -23.5 48
t-63.5 15q-36 0 -65 -10t-58 -30l-60 71q42 31 91 46t110 15q85 0 142.5 -38.5z" />
    <glyph glyph-name="uni0438" unicode="&#x438;" horiz-adv-x="595" 
d="M395 0v212q0 58 5 109.5t11 77.5l-195 -399h-139v529h124v-212q0 -55 -5.5 -109t-11.5 -77l194 398h140v-529h-123z" />
    <glyph glyph-name="uni0439" unicode="&#x439;" horiz-adv-x="595" 
d="M395 0v212q0 58 5 109.5t11 77.5l-195 -399h-139v529h124v-212q0 -55 -5.5 -109t-11.5 -77l194 398h140v-529h-123zM183 674q-43 37 -49 100l75 15q10 -32 31 -46t56 -14t57 14.5t31 45.5l76 -15q-6 -63 -50 -100t-114 -37t-113 37z" />
    <glyph glyph-name="uni045D" unicode="&#x45d;" horiz-adv-x="595" 
d="M395 0v212q0 58 5 109.5t11 77.5l-195 -399h-139v529h124v-212q0 -55 -5.5 -109t-11.5 -77l194 398h140v-529h-123zM402 630l-225 90l52 100l210 -125z" />
    <glyph glyph-name="uni043A" unicode="&#x43a;" horiz-adv-x="535" 
d="M532 0h-141l-129 235h-57v-235h-128v529h128v-209h60l123 209h128l-149 -245z" />
    <glyph glyph-name="uni045C" unicode="&#x45c;" horiz-adv-x="535" 
d="M532 0h-141l-129 235h-57v-235h-128v529h128v-209h60l123 209h128l-149 -245zM176 630l-36 65l210 125l52 -100z" />
    <glyph glyph-name="uni043B" unicode="&#x43b;" horiz-adv-x="573" 
d="M496 0h-128v432h-129l-13 -142q-10 -112 -24 -168t-46.5 -86.5t-99.5 -47.5l-32 95q33 14 47.5 31.5t21 55.5t13.5 129l18 230h372v-529z" />
    <glyph glyph-name="uni043C" unicode="&#x43c;" horiz-adv-x="671" 
d="M506 0l-17 217q-4 44 -4 96q0 26 2 98l-101 -355h-111l-97 354q3 -49 3 -98q0 -31 -2 -95l-14 -217h-122l46 529h156l86 -358l93 358h157l47 -529h-122z" />
    <glyph glyph-name="uni043D" unicode="&#x43d;" horiz-adv-x="589" 
d="M205 221v-221h-128v529h128v-211h179v211h128v-529h-128v221h-179z" />
    <glyph glyph-name="uni043E" unicode="&#x43e;" horiz-adv-x="584" 
d="M475.5 469.5q65.5 -74.5 65.5 -204.5q0 -83 -30 -146.5t-86 -98.5t-133 -35q-117 0 -183 74.5t-66 205.5q0 83 30 146t86.5 98t133.5 35q117 0 182.5 -74.5zM178 265q0 -94 28.5 -138.5t85.5 -44.5t85.5 45t28.5 138t-28.5 137.5t-84.5 44.5q-115 0 -115 -182z" />
    <glyph glyph-name="uni043F" unicode="&#x43f;" horiz-adv-x="586" 
d="M205 431v-431h-128v529h432v-529h-128v431h-176z" />
    <glyph glyph-name="uni0440" unicode="&#x440;" horiz-adv-x="596" 
d="M498.5 471q48.5 -73 48.5 -205q0 -82 -24.5 -145.5t-72 -99.5t-112.5 -36q-84 0 -133 58v-247l-128 -14v747h112l7 -65q30 40 70.5 60t82.5 20q101 0 149.5 -73zM413 265q0 98 -25.5 140.5t-76.5 42.5q-31 0 -58.5 -19.5t-47.5 -52.5v-238q37 -55 97 -55q111 0 111 182z
" />
    <glyph glyph-name="uni0441" unicode="&#x441;" horiz-adv-x="478" 
d="M383.5 529q41.5 -15 78.5 -47l-58 -78q-26 20 -51 29.5t-55 9.5q-119 0 -119 -181q0 -92 31 -132.5t88 -40.5q29 0 52.5 9.5t52.5 31.5l59 -84q-75 -61 -171 -61q-76 0 -132 33.5t-86 95.5t-30 146t30 148.5t86 100t131 35.5q52 0 93.5 -15z" />
    <glyph glyph-name="uni0442" unicode="&#x442;" horiz-adv-x="463" 
d="M295 431v-431h-128v431h-164v98h463l-16 -98h-155z" />
    <glyph glyph-name="uni0443" unicode="&#x443;" horiz-adv-x="506" 
d="M236 -154.5q-65 -54.5 -178 -63.5l-13 93q52 8 83.5 22.5t50.5 38.5t35 64h-44l-168 529h136l115 -444l120 444h132l-172 -531q-32 -98 -97 -152.5z" />
    <glyph glyph-name="uni045E" unicode="&#x45e;" horiz-adv-x="506" 
d="M236 -154.5q-65 -54.5 -178 -63.5l-13 93q52 8 83.5 22.5t50.5 38.5t35 64h-44l-168 529h136l115 -444l120 444h132l-172 -531q-32 -98 -97 -152.5zM139 674q-43 37 -49 100l75 15q10 -32 31 -46t56 -14t57 14.5t31 45.5l76 -15q-6 -63 -50 -100t-114 -37t-113 37z" />
    <glyph glyph-name="uni0444" unicode="&#x444;" horiz-adv-x="828" 
d="M736 472q43 -72 43 -207q0 -85 -22.5 -148t-64 -97.5t-97.5 -34.5q-73 0 -121 62v-251l-121 -14v265q-23 -30 -55 -46t-70 -16q-54 0 -95 34.5t-63 98t-22 147.5q0 133 44.5 206t137.5 73q75 0 123 -55v266l121 -14v-254q49 57 124 57q95 0 138 -72zM353 135v262
q-39 52 -90 52q-41 0 -61.5 -44.5t-20.5 -139.5q0 -184 83 -184q52 0 89 54zM647 265q0 96 -20.5 140t-63.5 44q-50 0 -89 -53v-261q19 -28 39.5 -41t48.5 -13q85 0 85 184z" />
    <glyph glyph-name="uni0445" unicode="&#x445;" horiz-adv-x="500" 
d="M246 210l-108 -210h-141l176 279l-158 250h146l90 -180l89 180h139l-153 -246l177 -283h-148z" />
    <glyph glyph-name="uni0447" unicode="&#x447;" horiz-adv-x="551" 
d="M474 0h-128v208q-28 -24 -68.5 -38.5t-84.5 -14.5q-76 0 -114 42t-38 118v214h128v-198q0 -43 16.5 -61.5t51.5 -18.5q29 0 59.5 12t49.5 32v234h128v-529z" />
    <glyph glyph-name="uni0446" unicode="&#x446;" horiz-adv-x="610" 
d="M584 -159h-94l-17 159h-396v529h128v-431h171v431h128v-432h80v-256z" />
    <glyph glyph-name="uni0448" unicode="&#x448;" horiz-adv-x="788" 
d="M77 0v529h123v-432h137v432h114v-432h137v432h123v-529h-634z" />
    <glyph glyph-name="uni0449" unicode="&#x449;" horiz-adv-x="801" 
d="M791 -159h-93l-17 159h-604v529h123v-432h137v432h114v-432h137v432h123v-432h80v-256z" />
    <glyph glyph-name="uni045F" unicode="&#x45f;" horiz-adv-x="581" 
d="M347 0v-159h-94l-17 159h-159v529h128v-431h171v431h128v-529h-157z" />
    <glyph glyph-name="uni044F" unicode="&#x44f;" horiz-adv-x="554" 
d="M477 0h-128v193h-89l-103 -193h-139l124 222q-87 44 -87 140q0 82 60 124.5t172 42.5h190v-529zM349 442h-64q-98 0 -98 -81q0 -43 23 -64t73 -21h66v166z" />
    <glyph glyph-name="uni044C" unicode="&#x44c;" horiz-adv-x="519" 
d="M438 315.5q57 -46.5 57 -134.5q0 -89 -61 -135t-156 -46h-201v529h128v-167h52q124 0 181 -46.5zM362 183q0 47 -24 69.5t-82 22.5h-51v-186h60q97 0 97 94z" />
    <glyph glyph-name="uni044A" unicode="&#x44a;" horiz-adv-x="587" 
d="M505.5 316q56.5 -46 56.5 -134q0 -89 -61 -135.5t-156 -46.5h-200v436h-147v93l147 1h128v-168h52q124 0 180.5 -46zM430 183q0 47 -24 69.5t-83 22.5h-50v-185h60q97 0 97 93z" />
    <glyph glyph-name="uni044B" unicode="&#x44b;" horiz-adv-x="749" 
d="M428 315.5q57 -46.5 57 -134.5q0 -89 -61 -135t-156 -46h-191v529h128v-167h42q124 0 181 -46.5zM672 0h-128v529h128v-529zM352 183q0 47 -24 69.5t-82 22.5h-41v-186h50q97 0 97 94z" />
    <glyph glyph-name="uni0459" unicode="&#x459;" horiz-adv-x="796" 
d="M714 315.5q57 -46.5 57 -134.5q0 -89 -61 -135t-156 -46h-191v432h-124l-13 -142q-10 -112 -24 -168t-46.5 -86.5t-99.5 -47.5l-32 95q33 14 47.5 31.5t21 55.5t13.5 129l18 230h367v-167h43q123 0 180 -46.5zM639 183q0 47 -24 69.5t-83 22.5h-41v-186h50q98 0 98 94z
" />
    <glyph glyph-name="uni045A" unicode="&#x45a;" horiz-adv-x="815" 
d="M790 170q0 -82 -61.5 -126t-155.5 -44h-191v249h-177v-249h-128v529h128v-190h177v190h128v-190h43q237 0 237 -169zM662 171q0 42 -24.5 62t-84.5 20h-43v-165h53q99 0 99 83z" />
    <glyph glyph-name="uni0455" unicode="&#x455;" horiz-adv-x="476" 
d="M432 481l-50 -77q-66 45 -130 45q-40 0 -61.5 -14.5t-21.5 -38.5q0 -18 9 -30t32.5 -22.5t69.5 -23.5q86 -23 127.5 -61t41.5 -106q0 -79 -64 -123.5t-159 -44.5q-65 0 -118.5 20t-92.5 55l65 73q66 -53 142 -53q43 0 69 17t26 45q0 24 -9.5 37.5t-34 24.5t-76.5 26
q-81 22 -119 61.5t-38 98.5q0 44 25.5 79t72 55t106.5 20q107 0 188 -63z" />
    <glyph glyph-name="uni0454" unicode="&#x454;" horiz-adv-x="484" 
d="M353 91.5q26 9.5 55 31.5l57 -77q-76 -61 -169 -61q-118 0 -185.5 74t-67.5 203q0 84 30.5 148t86.5 99t131 35q102 0 174 -62l-57 -73q-29 22 -54.5 30.5t-54.5 8.5q-55 0 -87.5 -34.5t-36.5 -102.5h203v-81h-204q4 -76 36.5 -112t88.5 -36q28 0 54 9.5z" />
    <glyph glyph-name="uni044D" unicode="&#x44d;" horiz-adv-x="485" 
d="M331.5 510q53.5 -34 82 -97t28.5 -149q0 -130 -64 -204.5t-184 -74.5q-99 0 -174 59l58 77q28 -21 53.5 -30t59.5 -9q108 0 119 148h-201v81h201q-7 71 -33.5 104t-77.5 33q-32 0 -60.5 -9t-57.5 -28l-55 73q37 30 80.5 45t99.5 15q72 0 125.5 -34z" />
    <glyph glyph-name="uni0456" unicode="&#x456;" horiz-adv-x="282" 
d="M199 775q22 -22 22 -56q0 -33 -22.5 -55t-57.5 -22t-57.5 22t-22.5 55t22.5 55.5t57.5 22.5q36 0 58 -22zM77 0v529h128v-529h-128z" />
    <glyph glyph-name="uni0457" unicode="&#x457;" horiz-adv-x="282" 
d="M77 0v529h128v-529h-128zM80 765q20 -20 20 -49t-20 -49t-50 -20q-29 0 -49.5 20t-20.5 49t20.5 49t49.5 20q30 0 50 -20zM302 765q20 -20 20 -49t-20 -49t-51 -20q-29 0 -49 20t-20 49t20 49t49 20q31 0 51 -20z" />
    <glyph glyph-name="uni0458" unicode="&#x458;" horiz-adv-x="281" 
d="M198 775q22 -22 22 -56q0 -33 -22.5 -55t-57.5 -22t-57.5 22t-22.5 55t22.5 55.5t57.5 22.5q36 0 58 -22zM181.5 -80.5q-22.5 -49.5 -63.5 -79.5t-107 -57l-41 93q39 18 61 35.5t33.5 47.5t11.5 80v490h128v-482q0 -78 -22.5 -127.5z" />
    <glyph glyph-name="uni045B" unicode="&#x45b;" horiz-adv-x="585" 
d="M473 501.5q40 -42.5 40 -117.5v-384h-128v363q0 47 -17 66t-49 19q-60 0 -110 -79v-369h-128v601h-68v82h68v57l128 14v-71h147l-12 -82h-135v-135q64 78 154 78q70 0 110 -42.5z" />
    <glyph glyph-name="uni044E" unicode="&#x44e;" horiz-adv-x="797" 
d="M641.5 510.5q53.5 -33.5 82.5 -96.5t29 -149q0 -80 -28.5 -144t-82 -100t-126.5 -36q-99 0 -159.5 64t-71.5 174h-80v-223h-128v529h128v-213h82q14 104 74 166t156 62q71 0 124.5 -33.5zM596.5 127.5q24.5 45.5 24.5 137.5q0 181 -104 181q-52 0 -78 -44t-26 -137
q0 -183 103 -183q56 0 80.5 45.5z" />
    <glyph glyph-name="uni0452" unicode="&#x452;" horiz-adv-x="589" 
d="M473 501q40 -43 40 -118v-336q0 -78 -22.5 -127.5t-63 -79.5t-106.5 -57l-41 93q39 18 60.5 35.5t33 47.5t11.5 80v324q0 47 -16.5 66t-48.5 19t-59 -20.5t-52 -58.5v-369h-128v601h-68v82h68v57l128 13v-70h145v-82h-145v-136q63 79 154 79q70 0 110 -43z" />
    <glyph glyph-name="uni0463" unicode="&#x463;" horiz-adv-x="527" 
d="M442.5 317q60.5 -45 60.5 -135t-63 -136t-176 -46h-178v463h-73v82h73v107l128 14v-121h133l-12 -82h-121v-101h43q125 0 185.5 -45zM342 110.5q28 21.5 28 72.5q0 48 -26.5 70t-81.5 22h-48v-186h49q51 0 79 21.5z" />
    <glyph glyph-name="uni0473" unicode="&#x473;" horiz-adv-x="584" 
d="M475.5 469.5q65.5 -74.5 65.5 -204.5q0 -83 -30 -146.5t-86 -98.5t-133 -35q-117 0 -183 74.5t-66 205.5q0 83 30 146t86.5 98t133.5 35q117 0 182.5 -74.5zM212.5 413.5q-28.5 -33.5 -35.5 -104.5h230q-7 71 -35 104.5t-79 33.5q-52 0 -80.5 -33.5zM374 118
q29 36 34 111h-232q5 -75 34 -111t82 -36t82 36z" />
    <glyph glyph-name="uni0475" unicode="&#x475;" horiz-adv-x="504" 
d="M484 467q-13 -30 -30 -82l-127 -385h-150l-175 529h137l115 -429l88 319q12 47 23 74t25 44l124 -16q-17 -24 -30 -54z" />
    <glyph glyph-name="uni0493" unicode="&#x493;" horiz-adv-x="443" 
d="M217 305h110v-80h-110v-225h-129v225h-71v80h72v225h354l-16 -100h-210v-125z" />
    <glyph glyph-name="uni0497" unicode="&#x497;" horiz-adv-x="740" 
d="M746 -159h-94l-16 159h-41l-110 232h-58v-232h-115v232h-57l-111 -232h-132l141 282l-126 247h125l101 -212h59v212h115v-212h60l102 212h124l-126 -247l93 -185h66v-256z" />
    <glyph glyph-name="uni0499" unicode="&#x499;" horiz-adv-x="499" 
d="M407 42q-48 -42 -129 -53q80 -48 80 -120q0 -54 -38 -86.5t-101 -32.5q-58 0 -104 25l28 68q32 -17 65 -17q28 0 42 14t14 39q0 60 -69 107q-110 6 -187 64l63 75q36 -24 68.5 -34.5t74.5 -10.5q107 0 107 79q0 71 -113 71h-77l8 88h58q46 0 73 17.5t27 53.5
q0 33 -23.5 48t-63.5 15q-36 0 -65 -10t-58 -30l-60 71q42 31 91 46t110 15q85 0 142.5 -38.5t57.5 -104.5q0 -46 -27.5 -75t-84.5 -43q70 -11 104.5 -41.5t34.5 -87.5q0 -70 -48 -112z" />
    <glyph glyph-name="uni049B" unicode="&#x49b;" horiz-adv-x="535" 
d="M543 -159h-93l-17 159h-42l-129 235h-57v-235h-128v529h128v-209h60l123 209h128l-149 -245l108 -187h68v-256z" />
    <glyph glyph-name="uni049D" unicode="&#x49d;" horiz-adv-x="545" 
d="M397 0l-102 238h-16v-120h-47v120h-31v-238h-124v529h124v-213h31v116h47v-116h17l95 213h127l-119 -244l135 -285h-137z" />
    <glyph glyph-name="uni04A1" unicode="&#x4a1;" horiz-adv-x="603" 
d="M459 0l-129 235h-57v-235h-128v436h-147v93l147 1h128v-210h60l123 210h129l-150 -246l165 -284h-141z" />
    <glyph glyph-name="uni04A3" unicode="&#x4a3;" horiz-adv-x="602" 
d="M593 -159h-94l-17 159h-98v221h-179v-221h-128v529h128v-211h179v211h128v-432h81v-256z" />
    <glyph glyph-name="uni0525" unicode="&#x525;" horiz-adv-x="599" 
d="M589 -159h-94l-16 159h-98v431h-176v-431h-128v529h432v-432h80v-256z" />
    <glyph glyph-name="uni04AB" unicode="&#x4ab;" horiz-adv-x="478" 
d="M327 -13q78 -46 78 -118q0 -54 -38 -86.5t-101 -32.5q-59 0 -104 26l28 67q32 -17 65 -17q28 0 42 14.5t14 39.5q0 62 -76 110q-90 18 -141 89t-51 181q0 84 30 148.5t86 100t131 35.5q52 0 93.5 -15t78.5 -47l-58 -78q-26 20 -51 29.5t-55 9.5q-119 0 -119 -181
q0 -92 31 -132.5t88 -40.5q29 0 52.5 9.5t52.5 31.5l59 -84q-60 -49 -135 -59z" />
    <glyph glyph-name="uni04AD" unicode="&#x4ad;" horiz-adv-x="463" 
d="M295 97h80v-256h-94l-16 159h-98v431h-164v98h463l-16 -98h-155v-334z" />
    <glyph glyph-name="uni04AF" unicode="&#x4af;" horiz-adv-x="504" 
d="M314 -204l-125 -14v228l-187 519h138l114 -408l117 408h131l-188 -519v-214z" />
    <glyph glyph-name="uni04B1" unicode="&#x4b1;" horiz-adv-x="504" 
d="M414 78v-80h-100v-202l-125 -14v216h-99v80h75l-163 451h138l114 -408l117 408h131l-163 -451h75z" />
    <glyph glyph-name="uni04B3" unicode="&#x4b3;" horiz-adv-x="500" 
d="M520 -159h-94l-16 159h-55l-109 210l-108 -210h-141l176 279l-158 250h146l90 -180l89 180h139l-153 -246l117 -186h77v-256z" />
    <glyph glyph-name="uni04B7" unicode="&#x4b7;" horiz-adv-x="551" 
d="M554 -158h-94l-16 158h-98v208q-28 -24 -68.5 -38.5t-84.5 -14.5q-76 0 -114 42t-38 118v214h128v-198q0 -43 16.5 -61.5t51.5 -18.5q29 0 59.5 12t49.5 32v234h128v-432h80v-255z" />
    <glyph glyph-name="uni04B9" unicode="&#x4b9;" horiz-adv-x="551" 
d="M474 0h-128v208q-28 -23 -65 -38v-83h-52v70q-12 -2 -36 -2q-76 0 -114 42t-38 118v214h128v-198q0 -40 15 -59t45 -21v143h52v-136q41 11 65 37v234h128v-529z" />
    <glyph glyph-name="uni04BB" unicode="&#x4bb;" horiz-adv-x="576" 
d="M469.5 441.5q39.5 -42.5 39.5 -118.5v-323h-128v303q0 47 -16.5 66t-48.5 19q-33 0 -59.5 -20.5t-51.5 -59.5v-308h-128v740l128 13v-345q63 76 154 76q71 0 110.5 -42.5z" />
    <glyph glyph-name="uni0527" unicode="&#x527;" horiz-adv-x="593" 
d="M587 -158h-94l-17 158h-95v303q0 47 -16.5 66t-48.5 19q-33 0 -59.5 -20.5t-51.5 -59.5v-308h-128v740l128 13v-345q63 76 154 76q71 0 110.5 -42.5t39.5 -118.5v-226h78v-255z" />
    <glyph glyph-name="uni04CF" unicode="&#x4cf;" horiz-adv-x="295" 
d="M207 97.5q7 -9.5 23 -9.5q15 0 30 5l27 -90q-43 -18 -91 -18q-60 0 -92 34.5t-32 100.5v621l128 14v-626q0 -22 7 -31.5z" />
    <glyph glyph-name="uni04C2" unicode="&#x4c2;" horiz-adv-x="740" 
d="M729 0h-134l-110 232h-58v-232h-115v232h-57l-111 -232h-132l141 282l-126 247h125l101 -212h59v212h115v-212h60l102 212h124l-126 -247zM255 674q-43 37 -49 100l75 15q10 -32 31 -46t56 -14t57 14.5t31 45.5l76 -15q-6 -63 -50 -100t-114 -37t-113 37z" />
    <glyph glyph-name="uni04CC" unicode="&#x4cc;" horiz-adv-x="551" 
d="M474 0h-98l-17 -158h-93v255h80v127q-28 -25 -68.5 -39.5t-84.5 -14.5q-76 0 -114 42t-38 119v198h128v-182q0 -43 16.5 -62t51.5 -19q29 0 59.5 12.5t49.5 31.5v219h128v-529z" />
    <glyph glyph-name="uni04D1" unicode="&#x4d1;" horiz-adv-x="546" 
d="M477.5 94.5q9.5 -14.5 30.5 -22.5l-27 -85q-45 4 -73.5 21.5t-43.5 55.5q-27 -40 -67.5 -59.5t-90.5 -19.5q-79 0 -125 45t-46 118q0 86 62.5 131.5t178.5 45.5h66v30q0 51 -23.5 71.5t-75.5 20.5q-58 0 -140 -28l-30 87q99 38 192 38q203 0 203 -182v-222
q0 -31 9.5 -45.5zM342 143v107h-53q-124 0 -124 -92q0 -38 19 -59t56 -21q65 0 102 65zM152 674q-43 37 -49 100l75 15q10 -32 31 -46t56 -14t57 14.5t31 45.5l76 -15q-6 -63 -50 -100t-114 -37t-113 37z" />
    <glyph glyph-name="uni04D3" unicode="&#x4d3;" horiz-adv-x="546" 
d="M477.5 94.5q9.5 -14.5 30.5 -22.5l-27 -85q-45 4 -73.5 21.5t-43.5 55.5q-27 -40 -67.5 -59.5t-90.5 -19.5q-79 0 -125 45t-46 118q0 86 62.5 131.5t178.5 45.5h66v30q0 51 -23.5 71.5t-75.5 20.5q-58 0 -140 -28l-30 87q99 38 192 38q203 0 203 -182v-222
q0 -31 9.5 -45.5zM342 143v107h-53q-124 0 -124 -92q0 -38 19 -59t56 -21q65 0 102 65zM205 765q20 -20 20 -49t-20 -49t-50 -20q-29 0 -49.5 20t-20.5 49t20.5 49t49.5 20q30 0 50 -20zM427 765q20 -20 20 -49t-20 -49t-51 -20q-29 0 -49 20t-20 49t20 49t49 20
q31 0 51 -20z" />
    <glyph glyph-name="uni04D7" unicode="&#x4d7;" horiz-adv-x="552" 
d="M508 225h-332q7 -77 40.5 -110t89.5 -33q35 0 66 11.5t66 35.5l53 -73q-88 -71 -196 -71q-121 0 -186.5 74t-65.5 202q0 81 28 145.5t81 101t126 36.5q111 0 172 -70.5t61 -196.5q0 -10 -3 -52zM384 314q0 139 -103 139q-47 0 -73.5 -34.5t-31.5 -110.5h208v6zM167 674
q-43 37 -49 100l75 15q10 -32 31 -46t56 -14t57 14.5t31 45.5l76 -15q-6 -63 -50 -100t-114 -37t-113 37z" />
    <glyph glyph-name="uni04D9" unicode="&#x4d9;" horiz-adv-x="558" 
d="M454 469.5q61 -74.5 61 -204.5q0 -83 -28.5 -146t-82.5 -98.5t-129 -35.5q-70 0 -123 32t-81.5 92t-28.5 143q0 37 2 53h343q-4 74 -34 109t-85 35q-37 0 -69 -11t-65 -36l-55 76q80 66 193 66q121 0 182 -74.5zM355 112.5q28 33.5 32 109.5h-223v-8q1 -64 30 -99.5
t81 -35.5t80 33.5z" />
    <glyph glyph-name="uni04DB" unicode="&#x4db;" horiz-adv-x="558" 
d="M454 469.5q61 -74.5 61 -204.5q0 -83 -28.5 -146t-82.5 -98.5t-129 -35.5q-70 0 -123 32t-81.5 92t-28.5 143q0 37 2 53h343q-4 74 -34 109t-85 35q-37 0 -69 -11t-65 -36l-55 76q80 66 193 66q121 0 182 -74.5zM355 112.5q28 33.5 32 109.5h-223v-8q1 -64 30 -99.5
t81 -35.5t80 33.5zM219 765q20 -20 20 -49t-20 -49t-50 -20q-29 0 -49.5 20t-20.5 49t20.5 49t49.5 20q30 0 50 -20zM441 765q20 -20 20 -49t-20 -49t-51 -20q-29 0 -49 20t-20 49t20 49t49 20q31 0 51 -20z" />
    <glyph glyph-name="uni04DD" unicode="&#x4dd;" horiz-adv-x="740" 
d="M729 0h-134l-110 232h-58v-232h-115v232h-57l-111 -232h-132l141 282l-126 247h125l101 -212h59v212h115v-212h60l102 212h124l-126 -247zM308 765q20 -20 20 -49t-20 -49t-50 -20q-29 0 -49.5 20t-20.5 49t20.5 49t49.5 20q30 0 50 -20zM530 765q20 -20 20 -49t-20 -49
t-51 -20q-29 0 -49 20t-20 49t20 49t49 20q31 0 51 -20z" />
    <glyph glyph-name="uni04DF" unicode="&#x4df;" horiz-adv-x="499" 
d="M370.5 505.5q57.5 -38.5 57.5 -104.5q0 -46 -27.5 -75t-84.5 -43q70 -11 104.5 -41.5t34.5 -87.5q0 -82 -65.5 -125.5t-170.5 -43.5q-123 0 -211 65l63 75q36 -24 68.5 -34.5t74.5 -10.5q107 0 107 79q0 71 -113 71h-77l8 88h58q46 0 73 17.5t27 53.5q0 33 -23.5 48
t-63.5 15q-36 0 -65 -10t-58 -30l-60 71q42 31 91 46t110 15q85 0 142.5 -38.5zM168 765q20 -20 20 -49t-20 -49t-50 -20q-29 0 -49.5 20t-20.5 49t20.5 49t49.5 20q30 0 50 -20zM390 765q20 -20 20 -49t-20 -49t-51 -20q-29 0 -49 20t-20 49t20 49t49 20q31 0 51 -20z" />
    <glyph glyph-name="uni04E3" unicode="&#x4e3;" horiz-adv-x="595" 
d="M395 0v212q0 58 5 109.5t11 77.5l-195 -399h-139v529h124v-212q0 -55 -5.5 -109t-11.5 -77l194 398h140v-529h-123zM152 752h291v-91h-291v91z" />
    <glyph glyph-name="uni04E5" unicode="&#x4e5;" horiz-adv-x="595" 
d="M395 0v212q0 58 5 109.5t11 77.5l-195 -399h-139v529h124v-212q0 -55 -5.5 -109t-11.5 -77l194 398h140v-529h-123zM236 765q20 -20 20 -49t-20 -49t-50 -20q-29 0 -49.5 20t-20.5 49t20.5 49t49.5 20q30 0 50 -20zM458 765q20 -20 20 -49t-20 -49t-51 -20q-29 0 -49 20
t-20 49t20 49t49 20q31 0 51 -20z" />
    <glyph glyph-name="uni04E7" unicode="&#x4e7;" horiz-adv-x="584" 
d="M475.5 469.5q65.5 -74.5 65.5 -204.5q0 -83 -30 -146.5t-86 -98.5t-133 -35q-117 0 -183 74.5t-66 205.5q0 83 30 146t86.5 98t133.5 35q117 0 182.5 -74.5zM178 265q0 -94 28.5 -138.5t85.5 -44.5t85.5 45t28.5 138t-28.5 137.5t-84.5 44.5q-115 0 -115 -182zM230 765
q20 -20 20 -49t-20 -49t-50 -20q-29 0 -49.5 20t-20.5 49t20.5 49t49.5 20q30 0 50 -20zM452 765q20 -20 20 -49t-20 -49t-51 -20q-29 0 -49 20t-20 49t20 49t49 20q31 0 51 -20z" />
    <glyph glyph-name="uni04E9" unicode="&#x4e9;" horiz-adv-x="584" 
d="M475.5 469.5q65.5 -74.5 65.5 -204.5q0 -83 -30 -146.5t-86 -98.5t-133 -35q-117 0 -183 74.5t-66 205.5q0 83 30 146t86.5 98t133.5 35q117 0 182.5 -74.5zM212.5 413.5q-28.5 -33.5 -35.5 -104.5h230q-7 71 -35 104.5t-79 33.5q-52 0 -80.5 -33.5zM374 118
q29 36 34 111h-232q5 -75 34 -111t82 -36t82 36z" />
    <glyph glyph-name="uni04EB" unicode="&#x4eb;" horiz-adv-x="584" 
d="M475.5 469.5q65.5 -74.5 65.5 -204.5q0 -83 -30 -146.5t-86 -98.5t-133 -35q-117 0 -183 74.5t-66 205.5q0 83 30 146t86.5 98t133.5 35q117 0 182.5 -74.5zM212.5 413.5q-28.5 -33.5 -35.5 -104.5h230q-7 71 -35 104.5t-79 33.5q-52 0 -80.5 -33.5zM374 118
q29 36 34 111h-232q5 -75 34 -111t82 -36t82 36zM230 765q20 -20 20 -49t-20 -49t-50 -20q-29 0 -49.5 20t-20.5 49t20.5 49t49.5 20q30 0 50 -20zM452 765q20 -20 20 -49t-20 -49t-51 -20q-29 0 -49 20t-20 49t20 49t49 20q31 0 51 -20z" />
    <glyph glyph-name="uni04ED" unicode="&#x4ed;" horiz-adv-x="485" 
d="M331.5 510q53.5 -34 82 -97t28.5 -149q0 -130 -64 -204.5t-184 -74.5q-99 0 -174 59l58 77q28 -21 53.5 -30t59.5 -9q108 0 119 148h-201v81h201q-7 71 -33.5 104t-77.5 33q-32 0 -60.5 -9t-57.5 -28l-55 73q37 30 80.5 45t99.5 15q72 0 125.5 -34zM159 765
q20 -20 20 -49t-20 -49t-50 -20q-29 0 -49.5 20t-20.5 49t20.5 49t49.5 20q30 0 50 -20zM381 765q20 -20 20 -49t-20 -49t-51 -20q-29 0 -49 20t-20 49t20 49t49 20q31 0 51 -20z" />
    <glyph glyph-name="uni04EF" unicode="&#x4ef;" horiz-adv-x="506" 
d="M236 -154.5q-65 -54.5 -178 -63.5l-13 93q52 8 83.5 22.5t50.5 38.5t35 64h-44l-168 529h136l115 -444l120 444h132l-172 -531q-32 -98 -97 -152.5zM107 752h291v-91h-291v91z" />
    <glyph glyph-name="uni04F1" unicode="&#x4f1;" horiz-adv-x="506" 
d="M236 -154.5q-65 -54.5 -178 -63.5l-13 93q52 8 83.5 22.5t50.5 38.5t35 64h-44l-168 529h136l115 -444l120 444h132l-172 -531q-32 -98 -97 -152.5zM192 765q20 -20 20 -49t-20 -49t-50 -20q-29 0 -49.5 20t-20.5 49t20.5 49t49.5 20q30 0 50 -20zM414 765q20 -20 20 -49
t-20 -49t-51 -20q-29 0 -49 20t-20 49t20 49t49 20q31 0 51 -20z" />
    <glyph glyph-name="uni04F3" unicode="&#x4f3;" horiz-adv-x="506" 
d="M236 -154.5q-65 -54.5 -178 -63.5l-13 93q52 8 83.5 22.5t50.5 38.5t35 64h-44l-168 529h136l115 -444l120 444h132l-172 -531q-32 -98 -97 -152.5zM202 634l-72 30l83 183l94 -46zM356 629l-70 32l92 186l93 -48z" />
    <glyph glyph-name="uni04F5" unicode="&#x4f5;" horiz-adv-x="551" 
d="M474 0h-128v208q-28 -24 -68.5 -38.5t-84.5 -14.5q-76 0 -114 42t-38 118v214h128v-198q0 -43 16.5 -61.5t51.5 -18.5q29 0 59.5 12t49.5 32v234h128v-529zM196 765q20 -20 20 -49t-20 -49t-50 -20q-29 0 -49.5 20t-20.5 49t20.5 49t49.5 20q30 0 50 -20zM418 765
q20 -20 20 -49t-20 -49t-51 -20q-29 0 -49 20t-20 49t20 49t49 20q31 0 51 -20z" />
    <glyph glyph-name="uni04F7" unicode="&#x4f7;" horiz-adv-x="431" 
d="M205 97h80v-256h-93l-17 159h-98v529h354l-15 -100h-211v-332z" />
    <glyph glyph-name="uni04F9" unicode="&#x4f9;" horiz-adv-x="749" 
d="M428 315.5q57 -46.5 57 -134.5q0 -89 -61 -135t-156 -46h-191v529h128v-167h42q124 0 181 -46.5zM672 0h-128v529h128v-529zM352 183q0 47 -24 69.5t-82 22.5h-41v-186h50q97 0 97 94zM313 765q20 -20 20 -49t-20 -49t-50 -20q-29 0 -49.5 20t-20.5 49t20.5 49t49.5 20
q30 0 50 -20zM535 765q20 -20 20 -49t-20 -49t-51 -20q-29 0 -49 20t-20 49t20 49t49 20q31 0 51 -20z" />
    <glyph glyph-name="uni051D" unicode="&#x51d;" horiz-adv-x="734" 
d="M448 0l-80 415l-82 -415h-157l-117 529h128l74 -435l92 435h131l84 -435l79 435h123l-115 -529h-160z" />
    <glyph glyph-name="uni04D4" unicode="&#x4d4;" horiz-adv-x="832" 
d="M790 0h-339l-33 160h-239l-57 -160h-140l273 691h496l-15 -98h-288l44 -194h250v-98h-227l45 -202h230v-99zM332 591l-118 -331h184z" />
    <glyph glyph-name="uni04D5" unicode="&#x4d5;" horiz-adv-x="856" 
d="M811 225h-332q7 -77 40.5 -110t89.5 -33q35 0 66 11t66 36l54 -73q-90 -71 -197 -71q-67 0 -118 24.5t-83 69.5q-35 -50 -81.5 -72t-106.5 -22q-80 0 -127 45t-47 118q0 86 63.5 131.5t181.5 45.5h67v30q0 50 -23.5 70.5t-75.5 20.5q-57 0 -141 -28l-29 88q99 38 191 38
q113 0 160 -73q60 73 157 73q107 0 167.5 -71t60.5 -196q0 -31 -3 -52zM688 314q-2 139 -104 139q-47 0 -73 -34.5t-32 -110.5h209v6zM308.5 97q27.5 19 52.5 58q-11 40 -13 89v4h-53q-124 0 -124 -92q0 -38 19 -58t56 -20q35 0 62.5 19z" />
    <glyph glyph-name="uni0430.sc" horiz-adv-x="513" 
d="M161 125l-33 -125h-133l185 566h154l183 -566h-134l-34 125h-188zM255 473l-69 -255h138z" />
    <glyph glyph-name="uni0431.sc" horiz-adv-x="535" 
d="M450.5 319q61.5 -45 61.5 -132q0 -93 -64 -140t-170 -47h-197v566h362l-14 -97h-221v-105h68q113 0 174.5 -45zM378 186q0 89 -111 89h-59v-182h61q109 0 109 93z" />
    <glyph glyph-name="uni0432.sc" horiz-adv-x="558" 
d="M523 165q0 -90 -67 -127.5t-188 -37.5h-187v567h163q123 0 188 -34.5t65 -111.5q0 -49 -31.5 -79.5t-77.5 -41.5q135 -25 135 -135zM208 339h62q46 0 72 17.5t26 53.5t-27.5 51t-84.5 15h-48v-137zM359 109.5q31 16.5 31 61.5q0 43 -30 63t-81 20h-71v-161h61
q59 0 90 16.5z" />
    <glyph glyph-name="uni0433.sc" horiz-adv-x="449" 
d="M208 465v-465h-127v566h364l-16 -101h-221z" />
    <glyph glyph-name="uni0453.sc" horiz-adv-x="449" 
d="M208 465v-465h-127v566h364l-16 -101h-221zM169 660l-37 66l210 124l52 -100z" />
    <glyph glyph-name="uni0491.sc" horiz-adv-x="449" 
d="M445 566l-16 -101h-221v-465h-127v566h243v138h121v-138z" />
    <glyph glyph-name="uni0434.sc" horiz-adv-x="557" 
d="M530 -158h-93l-17 158h-321l-17 -158h-93v255h44q19 20 31.5 50.5t23 86t23.5 157.5l24 175h334v-469h61v-255zM241 472l-9 -71q-11 -101 -22.5 -158.5t-30.5 -92t-50 -53.5h217v375h-105z" />
    <glyph glyph-name="uni0435.sc" horiz-adv-x="484" 
d="M208 474v-140h189v-91h-189v-150h231v-93h-358v566h357l-13 -92h-217z" />
    <glyph glyph-name="uni0450.sc" horiz-adv-x="484" 
d="M208 474v-140h189v-91h-189v-150h231v-93h-358v566h357l-13 -92h-217zM358 660l-225 90l52 100l210 -124z" />
    <glyph glyph-name="uni0451.sc" horiz-adv-x="484" 
d="M208 474v-140h189v-91h-189v-150h231v-93h-358v566h357l-13 -92h-217zM200 795q20 -20 20 -49t-20 -49t-50 -20q-29 0 -49.5 20t-20.5 49t20.5 49t49.5 20q30 0 50 -20zM422 795q20 -20 20 -49t-20 -49t-50 -20q-29 0 -49.5 20t-20.5 49t20.5 49t49.5 20q30 0 50 -20z
" />
    <glyph glyph-name="uni0436.sc" horiz-adv-x="800" 
d="M802 0h-141l-144 252h-57v-252h-119v252h-58l-145 -252h-140l182 304l-163 262h131l137 -226h56v226h119v-226h57l139 226h129l-163 -262z" />
    <glyph glyph-name="uni0437.sc" horiz-adv-x="479" 
d="M331.5 563q44.5 -19 69 -52.5t24.5 -74.5q0 -53 -33 -87t-97 -47q69 -8 109 -44t40 -97q0 -53 -30 -92.5t-83.5 -61t-121.5 -21.5q-131 0 -206 80l72 69q28 -26 57.5 -38t69.5 -12q46 0 74.5 22t28.5 59q0 42 -28 64t-84 22h-61l16 95h47q44 0 68.5 18.5t24.5 52.5
q0 30 -19.5 49t-58.5 19q-34 0 -63 -11.5t-61 -35.5l-66 68q44 38 94.5 56.5t112.5 18.5q60 0 104.5 -19z" />
    <glyph glyph-name="uni0438.sc" horiz-adv-x="612" 
d="M408 0v221q0 64 4.5 111t13.5 107l-190 -439h-155v566h125v-222q0 -61 -4 -103.5t-9 -73t-6 -39.5l194 438h151v-566h-124z" />
    <glyph glyph-name="uni0439.sc" horiz-adv-x="612" 
d="M408 0v221q0 64 4.5 111t13.5 107l-190 -439h-155v566h125v-222q0 -61 -4 -103.5t-9 -73t-6 -39.5l194 438h151v-566h-124zM192.5 704.5q-43.5 37.5 -49.5 100.5l76 14q9 -32 30 -46t56 -14t57 14t32 46l75 -14q-6 -63 -50 -100.5t-114 -37.5q-69 0 -112.5 37.5z" />
    <glyph glyph-name="uni045D.sc" horiz-adv-x="612" 
d="M408 0v221q0 64 4.5 111t13.5 107l-190 -439h-155v566h125v-222q0 -61 -4 -103.5t-9 -73t-6 -39.5l194 438h151v-566h-124zM404 660l-225 90l52 100l210 -124z" />
    <glyph glyph-name="uni043A.sc" horiz-adv-x="578" 
d="M576 0h-144l-173 251h-50v-251h-128v566h128v-225h50l168 225h133l-196 -262z" />
    <glyph glyph-name="uni045C.sc" horiz-adv-x="578" 
d="M576 0h-144l-173 251h-50v-251h-128v566h128v-225h50l168 225h133l-196 -262zM222 660l-37 66l210 124l52 -100z" />
    <glyph glyph-name="uni043B.sc" horiz-adv-x="573" 
d="M492 0h-127v469h-139l-17 -172q-11 -113 -25 -169.5t-46.5 -89t-98.5 -50.5l-31 95q32 14 46.5 34t21 57.5t15.5 131.5l25 260h376v-566z" />
    <glyph glyph-name="uni043C.sc" horiz-adv-x="713" 
d="M531 0l-13 226q-6 114 -6 168q0 24 2 76l-103 -410h-122l-106 408q3 -69 3 -123q0 -58 -3 -121l-13 -224h-124l47 567h161l98 -394l95 394h163l45 -567h-124z" />
    <glyph glyph-name="uni043D.sc" horiz-adv-x="615" 
d="M405 0v246h-197v-246h-127v566h127v-220h197v220h130v-566h-130z" />
    <glyph glyph-name="uni043E.sc" horiz-adv-x="617" 
d="M503.5 500.5q70.5 -77.5 70.5 -216.5t-71 -218t-194 -79q-124 0 -195 78t-71 219q0 90 32.5 156.5t92.5 102t141 35.5q124 0 194.5 -77.5zM210 436q-34 -48 -34 -152q0 -106 34 -154.5t99 -48.5q66 0 99 48t33 155q0 104 -33.5 152t-98.5 48t-99 -48z" />
    <glyph glyph-name="uni043F.sc" horiz-adv-x="612" 
d="M404 0v467h-196v-467h-127v566h450v-566h-127z" />
    <glyph glyph-name="uni0440.sc" horiz-adv-x="538" 
d="M447.5 520q64.5 -46 64.5 -137q0 -96 -64.5 -144t-171.5 -48h-68v-191h-127v566h185q117 0 181.5 -46zM351 306.5q29 22.5 29 75.5q0 93 -116 93h-56v-191h58q56 0 85 22.5z" />
    <glyph glyph-name="uni0441.sc" horiz-adv-x="509" 
d="M407 562.5q42 -15.5 81 -46.5l-63 -74q-52 41 -110 41q-63 0 -101 -49t-38 -149q0 -101 38 -150t103 -49q34 0 60 12t59 35l60 -74q-33 -32 -80 -52t-106 -20q-80 0 -140 34.5t-93.5 101.5t-33.5 162q0 91 34.5 157.5t94.5 101t136 34.5q57 0 99 -15.5z" />
    <glyph glyph-name="uni0442.sc" horiz-adv-x="468" 
d="M298 468v-468h-127v468h-159v99h451l-13 -99h-152z" />
    <glyph glyph-name="uni0443.sc" horiz-adv-x="494" 
d="M288 66q-32 -37 -76.5 -55t-112.5 -24l-17 86q58 7 88 24t51 54h-42l-186 415h132l133 -343l119 343h129l-161 -398q-25 -65 -57 -102z" />
    <glyph glyph-name="uni045E.sc" horiz-adv-x="494" 
d="M288 66q-32 -37 -76.5 -55t-112.5 -24l-17 86q58 7 88 24t51 54h-42l-186 415h132l133 -343l119 343h129l-161 -398q-25 -65 -57 -102zM135.5 704.5q-43.5 37.5 -49.5 100.5l76 14q9 -32 30 -46t56 -14t57 14t32 46l75 -14q-6 -63 -50 -100.5t-114 -37.5
q-69 0 -112.5 37.5z" />
    <glyph glyph-name="uni0444.sc" horiz-adv-x="746" 
d="M641.5 102q-74.5 -62 -206.5 -67v-67h-125v67q-134 6 -207 67.5t-73 181.5q0 123 74 185.5t206 67.5v62h125v-63q135 -6 208 -67.5t73 -181.5q0 -123 -74.5 -185zM197.5 161q38.5 -41 118.5 -46v342q-82 -6 -119.5 -47.5t-37.5 -125.5q0 -82 38.5 -123zM548.5 161.5
q37.5 41.5 37.5 125.5q0 83 -38.5 124t-118.5 45v-341q82 5 119.5 46.5z" />
    <glyph glyph-name="uni0445.sc" horiz-adv-x="497" 
d="M246 219l-110 -219h-136l172 302l-158 264h140l94 -182l98 182h136l-161 -260l176 -306h-140z" />
    <glyph glyph-name="uni0447.sc" horiz-adv-x="558" 
d="M477 0h-126v216q-33 -23 -65 -34t-73 -11q-86 0 -134.5 51.5t-48.5 140.5v203h126v-200q0 -51 22.5 -75t69.5 -24q64 0 103 34v265h126v-566z" />
    <glyph glyph-name="uni0446.sc" horiz-adv-x="644" 
d="M615 -159h-93l-17 159h-424v566h128v-468h198v468h128v-469h80v-256z" />
    <glyph glyph-name="uni0448.sc" horiz-adv-x="825" 
d="M81 0v566h125v-466h147v466h119v-466h147v466h125v-566h-663z" />
    <glyph glyph-name="uni0449.sc" horiz-adv-x="825" 
d="M824 -159h-93l-17 159h-633v566h125v-466h147v466h119v-466h147v466h125v-469h80v-256z" />
    <glyph glyph-name="uni045F.sc" horiz-adv-x="616" 
d="M365 0v-159h-94l-17 159h-173v566h128v-468h198v468h128v-566h-170z" />
    <glyph glyph-name="uni044F.sc" horiz-adv-x="544" 
d="M463 0h-128v207h-83l-103 -207h-141l129 229q-107 42 -107 158q0 88 60.5 133.5t180.5 45.5h192v-566zM335 476h-57q-115 0 -115 -92q0 -43 26.5 -65t71.5 -22h74v179z" />
    <glyph glyph-name="uni044C.sc" horiz-adv-x="532" 
d="M450.5 327.5q61.5 -45.5 61.5 -136.5q0 -96 -63.5 -143.5t-170.5 -47.5h-197v566h127v-193h68q113 0 174.5 -45.5zM350 116q28 23 28 74q0 93 -111 93h-59v-190h61q53 0 81 23z" />
    <glyph glyph-name="uni044A.sc" horiz-adv-x="599" 
d="M517.5 327.5q61.5 -45.5 61.5 -136.5q0 -96 -63.5 -143.5t-170.5 -47.5h-197v470h-148v96l148 1h128v-194h68q112 0 173.5 -45.5zM445 190q0 93 -111 93h-58v-190h61q108 0 108 97z" />
    <glyph glyph-name="uni044B.sc" horiz-adv-x="764" 
d="M441 327.5q62 -45.5 62 -136.5q0 -96 -63.5 -143.5t-170.5 -47.5h-188v566h127v-193h58q113 0 175 -45.5zM683 0h-127v566h127v-566zM370 190q0 93 -113 93h-49v-190h53q109 0 109 97z" />
    <glyph glyph-name="uni0459.sc" horiz-adv-x="794" 
d="M712 327.5q62 -45.5 62 -136.5q0 -96 -64 -143.5t-171 -47.5h-188v470h-125l-17 -173q-11 -113 -25 -169.5t-46.5 -89t-98.5 -50.5l-31 95q32 14 46.5 34t21 57.5t15.5 131.5l25 260h363v-193h57q114 0 176 -45.5zM641 190q0 93 -113 93h-49v-190h53q109 0 109 97z" />
    <glyph glyph-name="uni045A.sc" horiz-adv-x="844" 
d="M761.5 316q62.5 -45 62.5 -131q0 -92 -63 -138.5t-168 -46.5h-192v269h-193v-269h-127v566h127v-205h193v205h128v-205h58q112 0 174.5 -45zM663 115q27 22 27 69q0 44 -27 64.5t-81 20.5h-53v-176h58q49 0 76 22z" />
    <glyph glyph-name="uni0455.sc" horiz-adv-x="505" 
d="M372 560q49 -18 89 -54l-63 -70q-60 48 -130 48q-42 0 -66 -15t-24 -44q0 -19 9.5 -31t34 -23t74.5 -26q89 -27 133 -67.5t44 -113.5q0 -52 -27.5 -92t-80 -62.5t-123.5 -22.5q-72 0 -129 21.5t-96 58.5l65 73q67 -58 155 -58q47 0 75 19.5t28 52.5q0 22 -9.5 36.5
t-33.5 26.5t-69 25q-99 29 -140.5 69.5t-41.5 104.5q0 75 60.5 118.5t152.5 43.5q64 0 113 -18z" />
    <glyph glyph-name="uni0454.sc" horiz-adv-x="510" 
d="M415.5 7q-48.5 -20 -108.5 -20q-79 0 -138.5 34.5t-92.5 101.5t-33 162q0 91 34.5 157.5t94.5 101t136 34.5q56 0 98.5 -15.5t81.5 -46.5l-63 -73q-51 41 -111 41q-57 0 -95 -37t-45 -110h211v-92h-211q4 -79 43 -120.5t97 -41.5q36 0 64.5 12.5t59.5 35.5l58 -72
q-32 -32 -80.5 -52z" />
    <glyph glyph-name="uni044D.sc" horiz-adv-x="485" 
d="M378 504.5q64 -73.5 64 -219.5q0 -144 -65.5 -221t-181.5 -77q-58 0 -101 17t-77 48l58 72q26 -21 51.5 -31t61.5 -10q116 0 122 162h-208v92h208q-4 78 -34 112.5t-85 34.5q-35 0 -60 -9.5t-55 -31.5l-61 72q39 32 82.5 47.5t101.5 15.5q115 0 179 -73.5z" />
    <glyph glyph-name="uni0456.sc" horiz-adv-x="290" 
d="M81 0v566h128v-566h-128z" />
    <glyph glyph-name="uni0457.sc" horiz-adv-x="290" 
d="M81 0v566h128v-566h-128zM84 795q20 -20 20 -49t-20 -49t-50 -20q-29 0 -49.5 20t-20.5 49t20.5 49t49.5 20q30 0 50 -20zM306 795q20 -20 20 -49t-20 -49t-50 -20q-29 0 -49.5 20t-20.5 49t20.5 49t49.5 20q30 0 50 -20z" />
    <glyph glyph-name="uni0458.sc" horiz-adv-x="291" 
d="M166 -60q-48 -49 -136 -76l-33 91q55 21 72.5 50.5t17.5 84.5v476h127v-480q0 -97 -48 -146z" />
    <glyph glyph-name="uni045B.sc" horiz-adv-x="640" 
d="M561.5 326.5q48.5 -51.5 48.5 -143.5v-183h-128v183q0 51 -22 75.5t-70 24.5q-63 0 -103 -40v-243h-128v473l-147 -1v95h430l-12 -94h-143v-141q56 47 137 46q89 0 137.5 -51.5z" />
    <glyph glyph-name="uni044E.sc" horiz-adv-x="827" 
d="M716 501q68 -77 68 -217t-68.5 -218.5t-189.5 -78.5q-112 0 -176.5 67.5t-74.5 189.5h-67v-244h-127v566h127v-222h69q17 112 80.5 173t168.5 61q122 0 190 -77zM619 129q31 48 31 155q0 104 -31 152t-93 48q-60 0 -91.5 -48.5t-31.5 -153.5t31.5 -153t91.5 -48
q62 0 93 48z" />
    <glyph glyph-name="uni0452.sc" horiz-adv-x="645" 
d="M591 -27.5q-24 -42.5 -63.5 -66.5t-96.5 -42l-33 91q38 14 57 31.5t26 40t7 59.5v97q0 51 -22.5 75.5t-70.5 24.5q-34 0 -58.5 -10.5t-45.5 -30.5v-242h-128v473l-151 -1v95h440l-15 -94h-146v-142q55 47 138 47q89 0 137.5 -51.5t48.5 -143.5v-101q0 -67 -24 -109.5z
" />
    <glyph glyph-name="uni0463.sc" horiz-adv-x="618" 
d="M533.5 319q61.5 -45 61.5 -132q0 -93 -63.5 -140t-170.5 -47h-197v473h-152v94h440l-15 -94h-145v-109h68q112 0 173.5 -45zM462 186q0 89 -112 89h-58v-182h62q108 0 108 93z" />
    <glyph glyph-name="uni0473.sc" horiz-adv-x="617" 
d="M503.5 500.5q70.5 -77.5 70.5 -216.5t-71 -218t-194 -79q-124 0 -195 78t-71 219q0 90 32.5 156.5t92.5 102t141 35.5q124 0 194.5 -77.5zM175 325h268q-13 159 -134 159t-134 -159zM404 121.5q34 40.5 39 129.5h-269q11 -170 135 -170q61 0 95 40.5z" />
    <glyph glyph-name="uni0475.sc" horiz-adv-x="492" 
d="M486 504q-11 -25 -23 -67l-135 -437h-156l-177 566h135l122 -467l94 367q9 39 18.5 62.5t23.5 46.5l125 -23q-16 -23 -27 -48z" />
    <glyph glyph-name="uni0493.sc" horiz-adv-x="446" 
d="M205 339h131v-83h-131v-256h-127v256h-76v83h76v228h363l-15 -101l-221 -1v-126z" />
    <glyph glyph-name="uni0497.sc" horiz-adv-x="800" 
d="M816 -159h-93l-17 159h-45l-144 252h-57v-252h-119v252h-58l-145 -252h-140l182 304l-163 262h131l137 -226h56v226h119v-226h57l139 226h129l-163 -262l122 -207h72v-256z" />
    <glyph glyph-name="uni0499.sc" horiz-adv-x="479" 
d="M394 46.5q-50 -45.5 -134 -56.5v-42q50 -5 74.5 -30t24.5 -63q0 -50 -38 -79t-100 -29q-30 0 -57.5 8t-44.5 20l31 63q32 -17 63 -17q22 0 35.5 8.5t13.5 26.5q0 19 -22 28.5t-69 9.5l11 93q-112 7 -179 79l72 69q28 -26 57.5 -38t69.5 -12q46 0 74.5 22t28.5 59
q0 42 -28 64t-84 22h-61l16 95h47q44 0 68.5 18.5t24.5 52.5q0 30 -19.5 49t-58.5 19q-34 0 -63 -11.5t-61 -35.5l-66 68q44 38 94.5 56.5t112.5 18.5q60 0 104.5 -19t69 -52.5t24.5 -74.5q0 -53 -33 -87t-97 -47q69 -8 109 -44t40 -97q0 -69 -50 -114.5z" />
    <glyph glyph-name="uni049B.sc" horiz-adv-x="578" 
d="M589 -159h-94l-17 159h-46l-173 251h-50v-251h-128v566h128v-225h50l168 225h133l-196 -262l145 -207h80v-256z" />
    <glyph glyph-name="uni049D.sc" horiz-adv-x="557" 
d="M415 0l-113 253h-15v-132h-52v132h-31v-253h-123v566h123v-227h31v131h52v-131h14l111 227h127l-139 -256l154 -310h-139z" />
    <glyph glyph-name="uni04A1.sc" horiz-adv-x="641" 
d="M496 0l-173 251h-51v-251h-128v470h-144v96l144 1l128 -1h3l-3 -2v-223h51l168 226h132l-195 -262l212 -305h-144z" />
    <glyph glyph-name="uni04A3.sc" horiz-adv-x="615" 
d="M610 -159h-93l-17 159h-95v246h-197v-246h-127v566h127v-220h197v220h130v-469h75v-256z" />
    <glyph glyph-name="uni0525.sc" horiz-adv-x="644" 
d="M615 -159h-93l-17 159h-98v469h-198v-469h-128v567h454v-470h80v-256z" />
    <glyph glyph-name="uni04AB.sc" horiz-adv-x="509" 
d="M430 -131q0 -54 -38 -86.5t-101 -32.5q-59 0 -104 25l27 68q16 -8 30.5 -12.5t34.5 -4.5q28 0 42.5 14t14.5 39q0 63 -76 111q-100 15 -158.5 91.5t-58.5 203.5q0 91 34.5 157.5t94.5 101t136 34.5q57 0 99 -15.5t81 -46.5l-63 -74q-52 41 -110 41q-63 0 -101 -49
t-38 -149q0 -101 38 -150t103 -49q34 0 60 12t59 35l60 -74q-26 -26 -63.5 -45t-83.5 -25q81 -48 81 -120z" />
    <glyph glyph-name="uni04AD.sc" horiz-adv-x="468" 
d="M298 97h80v-256h-93l-17 159h-97v468h-159v99h451l-13 -99h-152v-371z" />
    <glyph glyph-name="uni04AF.sc" horiz-adv-x="510" 
d="M319 0h-129v213l-192 353h140l120 -254l118 254h136l-193 -352v-214z" />
    <glyph glyph-name="uni04B1.sc" horiz-adv-x="510" 
d="M422 255v-81h-103v-174h-129v174h-104v81h81l-169 311h140l120 -254l118 254h136l-171 -311h81z" />
    <glyph glyph-name="uni04B3.sc" horiz-adv-x="497" 
d="M508 -159h-94l-16 159h-41l-111 219l-110 -219h-136l172 302l-158 264h140l94 -182l98 182h136l-161 -260l121 -209h66v-256z" />
    <glyph glyph-name="uni04B7.sc" horiz-adv-x="558" 
d="M477 0h-126v216q-33 -23 -65 -34t-73 -11q-86 0 -134.5 51.5t-48.5 140.5v203h126v-200q0 -51 22.5 -75t69.5 -24q64 0 103 34v265h126v-566zM245 97v-256h-94l-16 159h-38l-7 97h155z" />
    <glyph glyph-name="uni04B9.sc" horiz-adv-x="573" 
d="M477 0h-126v216q-41 -28 -75 -37v-89h-53v81h-10q-86 0 -134.5 51.5t-48.5 140.5v203h126v-200q0 -87 67 -97v163h53v-163q43 5 75 32v265h126v-566z" />
    <glyph glyph-name="uni04BB.sc" horiz-adv-x="562" 
d="M483.5 326.5q48.5 -51.5 48.5 -143.5v-183h-128v183q0 51 -22.5 75.5t-69.5 24.5q-34 0 -58.5 -10t-45.5 -30v-243h-127v567h127v-235q56 46 137 46q90 0 138.5 -51.5z" />
    <glyph glyph-name="uni0527.sc" horiz-adv-x="638" 
d="M615 -159h-93l-17 159h-101v183q0 51 -22.5 75.5t-69.5 24.5q-34 0 -58.5 -10t-45.5 -30v-243h-127v567h127v-235q56 46 137 46q90 0 138.5 -51.5t48.5 -143.5v-86h83v-256z" />
    <glyph glyph-name="uni04CF.sc" horiz-adv-x="290" 
d="M81 0v566h128v-566h-128z" />
    <glyph glyph-name="uni04CC.sc" horiz-adv-x="546" 
d="M467 0h-96l-17 -159h-94v256h81v132q-31 -23 -62 -33.5t-71 -10.5q-84 0 -131 51t-47 141v189h126v-187q0 -51 21.5 -75t66.5 -24q60 0 97 34v252h126v-566z" />
    <glyph glyph-name="uni04D1.sc" horiz-adv-x="513" 
d="M161 125l-33 -125h-133l185 566h154l183 -566h-134l-34 125h-188zM255 473l-69 -255h138zM142.5 704.5q-43.5 37.5 -49.5 100.5l76 14q9 -32 30 -46t56 -14t57 14t32 46l75 -14q-6 -63 -50 -100.5t-114 -37.5q-69 0 -112.5 37.5z" />
    <glyph glyph-name="uni04D3.sc" horiz-adv-x="513" 
d="M161 125l-33 -125h-133l185 566h154l183 -566h-134l-34 125h-188zM255 473l-69 -255h138zM195 795q20 -20 20 -49t-20 -49t-50 -20q-29 0 -49.5 20t-20.5 49t20.5 49t49.5 20q30 0 50 -20zM417 795q20 -20 20 -49t-20 -49t-50 -20q-29 0 -49.5 20t-20.5 49t20.5 49
t49.5 20q30 0 50 -20z" />
    <glyph glyph-name="uni04D5.sc" horiz-adv-x="734" 
d="M692 0h-305l-25 125h-198l-46 -125h-136l236 566h441l-14 -92h-238l31 -141h214v-91h-194l32 -149h202v-93zM292 472l-93 -254h144z" />
    <glyph glyph-name="uni04D7.sc" horiz-adv-x="484" 
d="M208 474v-140h189v-91h-189v-150h231v-93h-358v566h357l-13 -92h-217zM147.5 704.5q-43.5 37.5 -49.5 100.5l76 14q9 -32 30 -46t56 -14t57 14t32 46l75 -14q-6 -63 -50 -100.5t-114 -37.5q-69 0 -112.5 37.5z" />
    <glyph glyph-name="uni04D9.sc" horiz-adv-x="574" 
d="M464.5 504.5q66.5 -73.5 66.5 -215.5q0 -148 -67.5 -225t-183.5 -77q-123 0 -185 76.5t-62 213.5q0 21 4 53h363q-7 154 -133 154q-73 0 -140 -50l-61 72q86 72 211 72q121 0 187.5 -73.5zM366 117.5q31 37.5 35 123.5h-245q3 -161 122 -161q57 0 88 37.5z" />
    <glyph glyph-name="uni04DB.sc" horiz-adv-x="574" 
d="M464.5 504.5q66.5 -73.5 66.5 -215.5q0 -148 -67.5 -225t-183.5 -77q-123 0 -185 76.5t-62 213.5q0 21 4 53h363q-7 154 -133 154q-73 0 -140 -50l-61 72q86 72 211 72q121 0 187.5 -73.5zM366 117.5q31 37.5 35 123.5h-245q3 -161 122 -161q57 0 88 37.5zM216 795
q20 -20 20 -49t-20 -49t-50 -20q-29 0 -49.5 20t-20.5 49t20.5 49t49.5 20q30 0 50 -20zM438 795q20 -20 20 -49t-20 -49t-50 -20q-29 0 -49.5 20t-20.5 49t20.5 49t49.5 20q30 0 50 -20z" />
    <glyph glyph-name="uni04E3.sc" horiz-adv-x="612" 
d="M408 0v221q0 64 4.5 111t13.5 107l-190 -439h-155v566h125v-222q0 -61 -4 -103.5t-9 -73t-6 -39.5l194 438h151v-566h-124zM160 782h291v-91h-291v91z" />
    <glyph glyph-name="uni04E9.sc" horiz-adv-x="617" 
d="M503.5 500.5q70.5 -77.5 70.5 -216.5t-71 -218t-194 -79q-124 0 -195 78t-71 219q0 90 32.5 156.5t92.5 102t141 35.5q124 0 194.5 -77.5zM175 325h268q-13 159 -134 159t-134 -159zM404 121.5q34 40.5 39 129.5h-269q11 -170 135 -170q61 0 95 40.5z" />
    <glyph glyph-name="uni04EB.sc" horiz-adv-x="617" 
d="M503.5 500.5q70.5 -77.5 70.5 -216.5t-71 -218t-194 -79q-124 0 -195 78t-71 219q0 90 32.5 156.5t92.5 102t141 35.5q124 0 194.5 -77.5zM175 325h268q-13 159 -134 159t-134 -159zM404 121.5q34 40.5 39 129.5h-269q11 -170 135 -170q61 0 95 40.5zM247 795
q20 -20 20 -49t-20 -49t-50 -20q-29 0 -49.5 20t-20.5 49t20.5 49t49.5 20q30 0 50 -20zM469 795q20 -20 20 -49t-20 -49t-50 -20q-29 0 -49.5 20t-20.5 49t20.5 49t49.5 20q30 0 50 -20z" />
    <glyph glyph-name="uni04ED.sc" horiz-adv-x="485" 
d="M378 504.5q64 -73.5 64 -219.5q0 -144 -65.5 -221t-181.5 -77q-58 0 -101 17t-77 48l58 72q26 -21 51.5 -31t61.5 -10q116 0 122 162h-208v92h208q-4 78 -34 112.5t-85 34.5q-35 0 -60 -9.5t-55 -31.5l-61 72q39 32 82.5 47.5t101.5 15.5q115 0 179 -73.5zM153 802
q20 -20 20 -49t-20 -49t-50 -20q-29 0 -49.5 20t-20.5 49t20.5 49t49.5 20q30 0 50 -20zM375 802q20 -20 20 -49t-20 -49t-51 -20q-29 0 -49 20t-20 49t20 49t49 20q31 0 51 -20z" />
    <glyph glyph-name="uni04EF.sc" horiz-adv-x="494" 
d="M288 66q-32 -37 -76.5 -55t-112.5 -24l-17 86q58 7 88 24t51 54h-42l-186 415h132l133 -343l119 343h129l-161 -398q-25 -65 -57 -102zM104 782h291v-91h-291v91z" />
    <glyph glyph-name="uni04F1.sc" horiz-adv-x="494" 
d="M288 66q-32 -37 -76.5 -55t-112.5 -24l-17 86q58 7 88 24t51 54h-42l-186 415h132l133 -343l119 343h129l-161 -398q-25 -65 -57 -102zM188 795q20 -20 20 -49t-20 -49t-50 -20q-29 0 -49.5 20t-20.5 49t20.5 49t49.5 20q30 0 50 -20zM410 795q20 -20 20 -49t-20 -49
t-50 -20q-29 0 -49.5 20t-20.5 49t20.5 49t49.5 20q30 0 50 -20z" />
    <glyph glyph-name="uni04F3.sc" horiz-adv-x="506" 
d="M213 664l-72 30l83 184l94 -47zM368 659l-71 33l92 186l93 -48zM288 66q-32 -37 -76.5 -55t-112.5 -24l-17 86q58 7 88 24t51 54h-42l-186 415h132l133 -343l119 343h129l-161 -398q-25 -65 -57 -102z" />
    <glyph glyph-name="uni04F5.sc" horiz-adv-x="558" 
d="M477 0h-126v216q-33 -23 -65 -34t-73 -11q-86 0 -134.5 51.5t-48.5 140.5v203h126v-200q0 -51 22.5 -75t69.5 -24q64 0 103 34v265h126v-566zM202 795q20 -20 20 -49t-20 -49t-50 -20q-29 0 -49.5 20t-20.5 49t20.5 49t49.5 20q30 0 50 -20zM424 795q20 -20 20 -49
t-20 -49t-50 -20q-29 0 -49.5 20t-20.5 49t20.5 49t49.5 20q30 0 50 -20z" />
    <glyph glyph-name="uni04F7.sc" horiz-adv-x="449" 
d="M208 97h78v-255h-94l-16 158h-95v566h364l-16 -101h-221v-368z" />
    <glyph glyph-name="uni04F9.sc" horiz-adv-x="764" 
d="M441 327.5q62 -45.5 62 -136.5q0 -96 -63.5 -143.5t-170.5 -47.5h-188v566h127v-193h58q113 0 175 -45.5zM683 0h-127v566h127v-566zM370 190q0 93 -113 93h-49v-190h53q109 0 109 97zM325 795q20 -20 20 -49t-20 -49t-50 -20q-29 0 -49.5 20t-20.5 49t20.5 49t49.5 20
q30 0 50 -20zM547 795q20 -20 20 -49t-20 -49t-50 -20q-29 0 -49.5 20t-20.5 49t20.5 49t49.5 20q30 0 50 -20z" />
    <glyph glyph-name="uni051D.sc" horiz-adv-x="739" 
d="M451 0l-83 434l-87 -434h-161l-103 567h127l67 -470l92 469h134l87 -470l77 471h121l-105 -567h-166z" />
    <glyph glyph-name="Alpha" unicode="&#x391;" horiz-adv-x="583" 
d="M175 160l-43 -160h-137l215 691h163l214 -691h-140l-43 160h-229zM289 590l-88 -330h177z" />
    <glyph glyph-name="Beta" unicode="&#x392;" horiz-adv-x="613" 
d="M534.5 315q43.5 -38 43.5 -116q0 -108 -76 -153.5t-213 -45.5h-208v691h181q286 0 286 -176q0 -61 -37 -99.5t-91 -49.5q71 -13 114.5 -51zM213 407h81q55 0 87 24.5t32 72.5q0 50 -33.5 70t-104.5 20h-62v-187zM401.5 121q38.5 22 38.5 83q0 59 -36.5 85t-99.5 26h-91
v-216h77q73 0 111.5 22z" />
    <glyph glyph-name="Gamma" unicode="&#x393;" horiz-adv-x="509" 
d="M213 584v-584h-132v691h423l-16 -107h-275z" />
    <glyph glyph-name="Delta" unicode="&#x394;" horiz-adv-x="592" 
d="M-5 0l220 691h163l218 -691h-601zM431 101l-137 488l-137 -488h274z" />
    <glyph glyph-name="Epsilon" unicode="&#x395;" horiz-adv-x="530" 
d="M213 593v-193h222v-98h-222v-203h273v-99h-405v691h401l-14 -98h-255z" />
    <glyph glyph-name="Zeta" unicode="&#x396;" horiz-adv-x="534" 
d="M177 108h322l-14 -108h-462v101l325 485h-292v105h440v-102z" />
    <glyph glyph-name="Eta" unicode="&#x397;" horiz-adv-x="672" 
d="M213 309v-309h-132v691h132v-277h246v277h133v-691h-133v309h-246z" />
    <glyph glyph-name="Theta" unicode="&#x398;" horiz-adv-x="691" 
d="M507 664q68 -42 104.5 -123t36.5 -195q0 -113 -37 -194t-105 -124t-160 -43q-93 0 -161 42t-105 123t-37 195q0 112 37 193.5t105.5 124.5t160.5 43q93 0 161 -42zM221 542.5q-43 -62.5 -43 -197.5q0 -259 168 -259q83 0 125.5 62t42.5 198q0 135 -42.5 197t-125.5 62
q-82 0 -125 -62.5zM236 310v84h219v-84h-219z" />
    <glyph glyph-name="Iota" unicode="&#x399;" horiz-adv-x="295" 
d="M81 0v691h133v-691h-133z" />
    <glyph glyph-name="Kappa" unicode="&#x39a;" horiz-adv-x="613" 
d="M81 0v691h132v-691h-132zM620 0h-157l-244 369l239 322h143l-239 -313z" />
    <glyph glyph-name="Lambda" unicode="&#x39b;" horiz-adv-x="583" 
d="M447 0l-157 590l-158 -590h-137l215 691h163l214 -691h-140z" />
    <glyph glyph-name="Mu" unicode="&#x39c;" horiz-adv-x="794" 
d="M607 0l-18 289q-9 151 -9 239v43l-126 -496h-125l-134 497q3 -48 3 -97q0 -76 -7 -190l-17 -285h-128l55 691h170l123 -484l116 484h172l54 -691h-129z" />
    <glyph glyph-name="Nu" unicode="&#x39d;" horiz-adv-x="672" 
d="M420 0l-237 559q9 -74 13.5 -134t4.5 -143v-282h-120v691h167l241 -560q-6 40 -12 105.5t-6 130.5v324h120v-691h-171z" />
    <glyph glyph-name="Xi" unicode="&#x39e;" horiz-adv-x="518" 
d="M37 578v113h441l-16 -113h-425zM99 296v109h315v-109h-315zM37 0v117h445v-117h-445z" />
    <glyph glyph-name="Omicron" unicode="&#x39f;" horiz-adv-x="691" 
d="M507 664q68 -42 104.5 -123t36.5 -195q0 -113 -37 -194t-105 -124t-160 -43q-93 0 -161 42t-105 123t-37 195q0 112 37 193.5t105.5 124.5t160.5 43q93 0 161 -42zM224 542.5q-42 -62.5 -42 -197.5q0 -259 164 -259q80 0 121.5 62t41.5 198q0 135 -41.5 197t-121.5 62
t-122 -62.5z" />
    <glyph glyph-name="Pi" unicode="&#x3a0;" horiz-adv-x="669" 
d="M456 0v586h-243v-586h-132v691h507v-691h-132z" />
    <glyph glyph-name="Rho" unicode="&#x3a1;" horiz-adv-x="591" 
d="M491.5 636q73.5 -55 73.5 -165q0 -115 -74 -172.5t-197 -57.5h-81v-241h-132v691h204q133 0 206.5 -55zM391 369.5q36 29.5 36 101.5q0 123 -143 123h-71v-254h71q71 0 107 29.5z" />
    <glyph glyph-name="Sigma" unicode="&#x3a3;" horiz-adv-x="503" 
d="M177 591l183 -218v-64l-184 -207h297v-102h-443v100l206 239l-206 252v100h443v-100h-296z" />
    <glyph glyph-name="Tau" unicode="&#x3a4;" horiz-adv-x="530" 
d="M331 586v-586h-133v586h-186v105h513l-14 -105h-180z" />
    <glyph glyph-name="Upsilon" unicode="&#x3a5;" horiz-adv-x="574" 
d="M354 0h-134v261l-222 430h146l146 -321l146 321h140l-222 -429v-262z" />
    <glyph glyph-name="Phi" unicode="&#x3a6;" horiz-adv-x="828" 
d="M716 148.5q-87 -71.5 -238 -76.5v-72h-129v72q-154 8 -239 79t-85 194q0 127 87 197.5t237 75.5v73h129v-74q154 -7 239.5 -77.5t85.5 -191.5q0 -128 -87 -199.5zM208.5 211q48.5 -48 145.5 -53v375q-99 -7 -146.5 -54.5t-47.5 -133.5t48.5 -134zM668 348
q0 84 -48.5 131.5t-146.5 52.5v-375q195 13 195 191z" />
    <glyph glyph-name="Chi" unicode="&#x3a7;" horiz-adv-x="562" 
d="M416 0l-138 283l-137 -283h-141l200 368l-184 323h147l117 -239l122 239h141l-185 -318l205 -373h-147z" />
    <glyph glyph-name="Psi" unicode="&#x3a8;" horiz-adv-x="712" 
d="M686 430q0 -106 -67.5 -167.5t-196.5 -75.5v-187h-133v187q-131 13 -196.5 74t-65.5 167v263h128v-262q0 -68 33 -103t106 -43v408h123v-407q73 8 106.5 43t33.5 102v262h129v-261z" />
    <glyph glyph-name="Omega" unicode="&#x3a9;" horiz-adv-x="691" 
d="M507 664.5q68 -41.5 104.5 -118t36.5 -179.5q0 -100 -31 -163t-102 -103h112v-101h-236v98q65 25 91.5 88t26.5 181q0 120 -42 179t-121 59t-121.5 -59.5t-42.5 -179.5t27 -181t91 -87v-98h-236v101h108q-66 36 -97.5 100t-31.5 165t37 178t106 119.5t160 42.5
q93 0 161 -41.5z" />
    <glyph glyph-name="Alphatonos" unicode="&#x386;" horiz-adv-x="583" 
d="M175 160l-43 -160h-137l215 691h163l214 -691h-140l-43 160h-229zM289 590l-88 -330h177zM49 477l-86 15l37 225l130 -26z" />
    <glyph glyph-name="Epsilontonos" unicode="&#x388;" horiz-adv-x="530" 
d="M213 593v-193h222v-98h-222v-203h273v-99h-405v691h401l-14 -98h-255zM-20 477l-86 15l37 225l130 -26z" />
    <glyph glyph-name="Etatonos" unicode="&#x389;" horiz-adv-x="672" 
d="M213 309v-309h-132v691h132v-277h246v277h133v-691h-133v309h-246zM-20 477l-86 15l37 225l130 -26z" />
    <glyph glyph-name="Iotatonos" unicode="&#x38a;" horiz-adv-x="295" 
d="M81 0v691h133v-691h-133zM-20 477l-86 15l37 225l130 -26z" />
    <glyph glyph-name="Omicrontonos" unicode="&#x38c;" horiz-adv-x="691" 
d="M507 664q68 -42 104.5 -123t36.5 -195q0 -113 -37 -194t-105 -124t-160 -43q-93 0 -161 42t-105 123t-37 195q0 112 37 193.5t105.5 124.5t160.5 43q93 0 161 -42zM224 542.5q-42 -62.5 -42 -197.5q0 -259 164 -259q80 0 121.5 62t41.5 198q0 135 -41.5 197t-121.5 62
t-122 -62.5zM15 477l-86 15l37 225l130 -26z" />
    <glyph glyph-name="Upsilontonos" unicode="&#x38e;" horiz-adv-x="574" 
d="M354 0h-134v261l-222 430h146l146 -321l146 321h140l-222 -429v-262zM-95 477l-86 15l37 225l130 -26z" />
    <glyph glyph-name="Omegatonos" unicode="&#x38f;" horiz-adv-x="691" 
d="M507 664.5q68 -41.5 104.5 -118t36.5 -179.5q0 -100 -31 -163t-102 -103h112v-101h-236v98q65 25 91.5 88t26.5 181q0 120 -42 179t-121 59t-121.5 -59.5t-42.5 -179.5t27 -181t91 -87v-98h-236v101h108q-66 36 -97.5 100t-31.5 165t37 178t106 119.5t160 42.5
q93 0 161 -41.5zM12 477l-86 15l37 225l130 -26z" />
    </font>
</defs>
</svg>
